<?xml version="1.0" standalone="no"?>
<!DOCTYPE svg PUBLIC "-//W3C//DTD SVG 1.1//EN" "http://www.w3.org/Graphics/SVG/1.1/DTD/svg11.dtd" >
<svg xmlns="http://www.w3.org/2000/svg">
<metadata>Generated by IcoMoon</metadata>
<defs>
<font id="ufmgmockup" horiz-adv-x="1024">
<font-face units-per-em="1024" ascent="960" descent="-64" />
<missing-glyph horiz-adv-x="1024" />
<glyph unicode="&#x20;" horiz-adv-x="512" d="" />
<glyph unicode="&#xe900;" glyph-name="exclamacao2" horiz-adv-x="240" d="M119.858 170.504c-39.084 0-70.351-10.422-91.196-28.662-18.239-20.845-28.662-49.506-28.662-88.59 0-36.478 10.422-65.14 31.267-85.985s52.112-31.267 88.59-31.267c36.478 0 67.746 10.422 88.59 31.267s31.267 49.506 31.267 85.985c0 36.478-10.422 65.14-31.267 85.985s-49.506 31.267-88.59 31.267zM205.842 287.756l33.873 672.244h-237.109l36.478-672.244z" />
<glyph unicode="&#xe901;" glyph-name="fone" horiz-adv-x="1229" d="M1229.452 268.078v-191.652c0-76.276-60.678-140.425-136.954-140.425h-62.393c-35.286 0.9-63.608 29.47-64.107 64.77l-0.001 0.048v482.999c-0.298 193.778-157.454 350.75-351.272 350.75-194.002 0-351.272-157.27-351.272-351.272 0-0.184 0-0.368 0-0.552v0.029-481.912c0-34.625-26.68-64.818-61.347-64.818h-62.351c-76.276-0.042-139.756 64.107-139.756 140.383v191.652c0.399 76.121 61.905 137.745 137.943 138.334h0.056v76.36c0 263.12 213.858 477.228 476.726 477.228s476.726-213.607 476.726-476.225v-77.363c0.477 0.006 1.039 0.009 1.603 0.009 75.338 0 136.411-61.073 136.411-136.411 0-0.68-0.005-1.358-0.015-2.036l0.001 0.103z" />
<glyph unicode="&#xe902;" glyph-name="exclamacao" d="M512 960c-283 0-512-229.020-512-512s229.020-512 512-512 512 229.020 512 512-229.020 512-512 512zM512 16c-238.587 0-432 193.413-432 432s193.413 432 432 432c238.587 0 432-193.413 432-432v0c0-0.071 0-0.156 0-0.24 0-238.454-193.306-431.76-431.76-431.76-0.084 0-0.169 0-0.253 0h0.013zM512 702.24c-22.091 0-40-17.909-40-40v0-257.58c0-22.091 17.909-40 40-40s40 17.909 40 40v0 257.58c0 22.091-17.909 40-40 40v0zM566 261.68c0-29.823-24.177-54-54-54s-54 24.177-54 54c0 29.823 24.177 54 54 54s54-24.177 54-54z" />
<glyph unicode="&#xe903;" glyph-name="player" d="M377.29 241.228v442.459l373.86-226.374-373.86-216.084z" />
<glyph unicode="&#xe904;" glyph-name="relogio" d="M538.048 439.289v244.070c0 27.889-22.608 50.497-50.497 50.497s-50.497-22.608-50.497-50.497v0-264.69c0.013-13.939 5.671-26.554 14.812-35.684l116.061-116.145c9.143-9.143 21.775-14.799 35.727-14.799 27.904 0 50.525 22.621 50.525 50.525 0 13.952-5.655 26.584-14.799 35.727v0l-100.994 100.994z" />
<glyph unicode="&#xe905;" glyph-name="signal-tower" d="M512.25 787.353c-63.068 0-114.376-51.308-114.376-114.376s51.308-114.376 114.376-114.376c63.058 0 114.386 51.308 114.386 114.376 0.002 63.068-51.318 114.376-114.386 114.376zM512.25 623.344c-27.374 0-49.634 22.26-49.634 49.634s22.27 49.634 49.634 49.634c27.374 0 49.646-22.26 49.646-49.634s-22.27-49.634-49.646-49.634zM385.142 800.075c12.646 12.636 12.646 33.136 0 45.772-12.636 12.646-33.136 12.646-45.772 0-95.31-95.32-95.31-250.418 0-345.739 6.322-6.322 14.61-9.484 22.896-9.484 8.276 0 16.562 3.162 22.876 9.474 12.636 12.646 12.636 33.148 0 45.782-70.072 70.082-70.072 184.114 0 254.196zM685.12 845.847c-12.646 12.636-33.126 12.646-45.772 0s-12.646-33.136 0-45.782c34.064-34.064 52.828-79.2 52.828-127.086s-18.764-93.022-52.828-127.098c-12.646-12.636-12.646-33.136 0-45.772 6.324-6.322 14.6-9.484 22.886-9.484 8.276 0 16.562 3.162 22.886 9.484 46.3 46.3 71.798 107.686 71.798 172.87 0 65.182-25.498 126.568-71.798 172.868zM183.959 672.438c0 87.552 34.28 170.042 96.53 232.302 12.646 12.636 12.646 33.136 0 45.772-12.636 12.646-33.136 12.646-45.772 0-74.484-74.474-115.498-173.236-115.498-278.073 0-104.848 41.014-203.6 115.498-278.073 6.312-6.324 14.6-9.484 22.886-9.484 8.276 0 16.574 3.162 22.886 9.484 12.646 12.646 12.646 33.136 0 45.772-62.248 62.25-96.53 144.752-96.53 232.302zM789.783 950.523c-12.646 12.636-33.126 12.636-45.772 0-12.646-12.646-12.646-33.148 0-45.782 128.080-128.090 128.080-336.513 0-464.603-12.646-12.636-12.646-33.136 0-45.772 6.324-6.324 14.6-9.484 22.886-9.484s16.562 3.162 22.886 9.496c153.33 153.326 153.33 402.815 0 556.144zM383.305 359.989l46.21 45.336 335.566-342.035-46.21-45.336-335.566 342.035zM259.362 63.296l336.69 342.065 46.142-45.416-336.69-342.065-46.142 45.416zM798.437-20.669l-225.514 626.92c-6.054 16.822-24.558 25.54-41.424 19.498-16.822-6.042-25.552-24.59-19.498-41.412l225.516-626.918c4.748-13.196 17.2-21.418 30.46-21.418 3.636 0 7.326 0.614 10.952 1.91 16.822 6.062 25.562 24.588 19.508 41.42zM494.112 625.75c-16.768 6.042-35.37-2.622-41.446-19.444l-226.594-626.918c-6.074-16.812 2.622-35.37 19.444-41.446 3.636-1.316 7.348-1.942 11.006-1.942 13.24 0 25.68 8.19 30.44 21.386l226.594 626.918c6.074 16.812-2.622 35.37-19.444 41.446z" />
<glyph unicode="&#xe906;" glyph-name="grid" d="M219.427 960h-146.286c-40.373 0-73.142-32.769-73.142-73.142v-146.286c0-40.375 32.769-73.142 73.142-73.142h146.286c40.375 0 73.142 32.769 73.142 73.142v146.286c0.002 40.373-32.767 73.142-73.142 73.142zM585.143 960h-146.286c-40.375 0-73.142-32.769-73.142-73.142v-146.286c0-40.375 32.769-73.142 73.142-73.142h146.286c40.375 0 73.142 32.769 73.142 73.142v146.286c0 40.373-32.767 73.142-73.142 73.142zM950.856 960h-146.286c-40.375 0-73.144-32.769-73.144-73.142v-146.286c0-40.375 32.769-73.142 73.144-73.142h146.286c40.375 0 73.144 32.769 73.144 73.142v146.286c0 40.373-32.769 73.142-73.144 73.142zM219.427 594.287h-146.286c-40.373 0-73.142-32.769-73.142-73.144v-146.286c0-40.375 32.769-73.142 73.142-73.142h146.286c40.375 0 73.142 32.769 73.142 73.142v146.286c0.002 40.375-32.767 73.144-73.142 73.144zM585.143 594.287h-146.286c-40.375 0-73.142-32.769-73.142-73.142v-146.286c0-40.375 32.769-73.142 73.142-73.142h146.286c40.375 0 73.142 32.769 73.142 73.142v146.286c0 40.373-32.767 73.142-73.142 73.142zM950.856 594.287h-146.286c-40.375 0-73.144-32.769-73.144-73.142v-146.286c0-40.375 32.769-73.142 73.144-73.142h146.286c40.375 0 73.144 32.769 73.144 73.142v146.286c0 40.373-32.769 73.142-73.144 73.142zM219.427 228.571h-146.286c-40.373 0-73.142-32.767-73.142-73.142v-146.286c0-40.375 32.769-73.144 73.142-73.144h146.286c40.375 0 73.142 32.769 73.142 73.144v146.286c0.002 40.375-32.767 73.142-73.142 73.142zM585.143 228.571h-146.286c-40.375 0-73.142-32.769-73.142-73.144v-146.286c0-40.375 32.769-73.144 73.142-73.144h146.286c40.375 0 73.142 32.769 73.142 73.144v146.286c0 40.377-32.767 73.144-73.142 73.144zM950.856 228.571h-146.286c-40.375 0-73.144-32.769-73.144-73.144v-146.286c0-40.375 32.769-73.144 73.144-73.144h146.286c40.375 0 73.144 32.769 73.144 73.144v146.286c0 40.377-32.769 73.144-73.144 73.144z" />
<glyph unicode="&#xe907;" glyph-name="arrow--down" d="M874.816 810.816c99.655-100.848 149.184-221.389 149.184-362.816s-49.529-262.564-149.184-362.816-221.389-149.184-362.816-149.184-261.967 49.529-362.816 149.184c-99.058 100.848-149.184 221.986-149.184 362.816s49.529 261.967 149.184 362.816c100.848 99.058 221.986 149.184 362.816 149.184s262.564-50.126 362.816-149.184zM847.963 112.037q140.531 138.741 140.233 335.963c0 131.282-46.545 243.469-140.83 335.366q-138.741 140.531-335.366 140.83c-131.282 0-243.469-46.545-335.366-140.83q-140.531-138.741-140.83-335.366c0-131.282 47.142-243.469 140.83-335.366 91.897-94.284 204.084-140.83 335.366-140.83s243.469 46.545 335.963 140.233zM512 319.702l-170.070 170.070h340.14z" />
<glyph unicode="&#xe908;" glyph-name="arrow--up" d="M149.184 85.184c-99.655 100.848-149.184 221.389-149.184 362.816s49.529 262.564 149.184 362.816c100.252 99.655 221.389 149.184 362.816 149.184s261.967-49.529 362.816-149.184c99.058-100.848 149.184-221.986 149.184-362.816 0-141.427-49.529-261.967-149.184-362.816-100.848-99.058-221.986-149.184-362.816-149.184-141.427 0-262.564 50.126-362.816 149.184zM176.037 783.963c-93.688-92.494-140.233-204.681-140.233-335.963s46.545-243.469 140.83-335.366c92.494-93.688 204.084-140.83 335.366-140.83s243.469 46.545 335.366 140.83c93.688 92.494 140.83 204.084 140.83 335.366s-47.142 243.469-140.83 335.366c-91.897 94.284-204.084 140.83-335.366 140.83-131.879 0-243.469-46.545-335.963-140.233zM512 576.298l170.070-170.070h-340.14l170.070 170.070z" />
<glyph unicode="&#xe909;" glyph-name="arrow-left-article" d="M512.020-64c282.781 0 512.020 229.239 512.020 512.020s-229.239 512.020-512.020 512.020c-282.781 0-512.020-229.239-512.020-512.020 0-0.014 0-0.028 0-0.042v0.002c0.023-282.763 229.253-511.98 512.020-511.98v0zM389.765 480.876l230.192 230.192 21.904-21.904-230.192-230.192 229.705-229.705-21.904-21.904-251.487 251.487 21.904 21.904z" />
<glyph unicode="&#xe90a;" glyph-name="arrow-right-article" d="M512.020 960c-0.012 0-0.026 0-0.041 0-282.781 0-512.020-229.239-512.020-512.020s229.239-512.020 512.020-512.020c282.781 0 512.020 229.239 512.020 512.020v0c0 282.767-229.216 511.997-511.978 512.020h-0.002zM634.276 415.124l-230.233-230.192-21.904 21.904 230.354 230.192-229.868 229.705 21.904 21.904 251.487-251.487-21.904-21.904z" />
<glyph unicode="&#xe90b;" glyph-name="arrow-top" horiz-adv-x="723" d="M707.048 634.921l-308.825 308.825c-8.127 8.127-24.381 16.254-32.508 16.254-16.254 0-32.508-8.127-40.635-16.254l-308.825-308.825c-8.127-8.127-16.254-24.381-16.254-40.635 0 0 0 0 0 0 0-16.254 8.127-24.381 16.254-32.508 16.254-16.254 48.762-16.254 73.143 0l227.556 227.556v-796.444c0-24.381 24.381-48.762 48.762-48.762s48.762 24.381 48.762 48.762v796.444l227.556-227.556c16.254-16.254 48.762-16.254 73.143 0 8.127 8.127 16.254 24.381 16.254 32.508v0c-8.127 16.254-16.254 32.508-24.381 40.635z" />
<glyph unicode="&#xe90c;" glyph-name="audio" horiz-adv-x="1193" d="M238.705 645.274l396.829 314.726v-1024l-396.829 314.726h-158.883c-53.215 0-79.822 25.847-79.822 77.541v237.185c0 53.215 26.607 79.822 79.822 79.822h158.883zM270.634 531.243h-176.368v-174.088h176.368l282.797-246.307v666.702l-282.797-246.307zM874.239 446.86c0-91.225-44.852-152.042-134.557-182.45l-50.174 68.419c69.179 9.122 104.148 47.133 104.148 114.031 0 68.419-34.97 107.189-104.148 116.312l50.174 68.419c89.705-31.169 134.557-92.745 134.557-184.731zM1032.362 446.86c0-144.439-66.138-249.348-198.414-314.726l-46.373 66.138c110.99 47.893 166.486 130.756 166.486 248.588 0 118.592-55.495 202.215-166.486 250.869l46.373 63.857c132.276-65.378 198.414-170.287 198.414-314.726zM1182.883 532.763l9.883-85.903-9.883-84.383c-26.607-158.883-112.511-278.996-256.95-358.818l-46.373 63.857c155.082 82.863 232.624 209.057 232.624 378.584 0 171.047-77.541 297.241-232.624 378.584l46.373 66.138c144.439-79.062 229.583-198.414 256.95-358.058z" />
<glyph unicode="&#xe90d;" glyph-name="back-to-top" d="M511.348-64c283.068 0 511.348 229.585 511.348 511.348s-228.28 512.652-511.348 512.652-511.348-229.585-511.348-511.348 229.585-512.652 511.348-512.652c0 0 0 0 0 0zM511.348 669.106l378.293-267.414h-756.586l378.293 267.414z" />
<glyph unicode="&#xe90e;" glyph-name="bubble" d="M510.86 960c141.399 0 262.272-50.174 362.619-150.521s150.521-221.22 150.521-362.619c0-140.638-50.174-260.751-150.521-361.099s-221.22-150.521-362.619-150.521c-100.347 0-192.333 27.367-276.716 82.102l-155.843-53.215 40.291 154.322c-79.062 95.786-118.592 205.256-118.592 328.41 0 141.399 50.174 262.272 150.521 362.619 98.827 100.347 218.94 150.521 360.339 150.521zM510.86-0.143c123.914 0 229.583 43.332 317.007 129.996 88.184 88.184 132.276 193.853 132.276 317.007 0 123.914-44.092 229.583-132.276 317.007-86.664 88.184-192.333 132.276-317.007 132.276-123.154 0-228.823-44.092-317.007-132.276-86.664-87.424-129.996-193.093-129.996-317.007 0-123.154 43.332-228.823 129.996-317.007 88.944-86.664 194.613-129.996 317.007-129.996zM320.808 639.192h383.145v-63.857h-383.145v63.857zM320.808 478.788h383.145v-63.857h-383.145v63.857zM320.808 318.385h383.145v-63.857h-383.145v63.857z" />
<glyph unicode="&#xe90f;" glyph-name="bus" d="M962.413 715.49c16.546 0 30.334-6.434 43.203-18.384 11.95-11.95 18.384-27.576 18.384-45.041v-61.587c0-16.546-6.434-30.334-18.384-43.203s-26.657-18.384-43.203-18.384h-20.223v-420.079c0-28.496-13.788-47.799-40.445-56.991v-34.93c0-22.061-8.273-40.445-24.819-56.991s-34.93-24.819-56.991-24.819c-22.98 0-43.203 8.273-58.829 24.819s-24.819 34.93-24.819 56.991v30.334h-448.575v-30.334c0-22.061-8.273-40.445-24.819-56.991s-35.849-24.819-58.829-24.819c-22.061 0-40.445 8.273-56.991 24.819s-24.819 34.93-24.819 56.991v34.93c-27.576 9.192-40.445 28.496-40.445 56.991v420.998h-20.223c-16.546 0-30.334 6.434-43.203 18.384-11.95 11.95-18.384 26.657-18.384 43.203v61.587c0 17.465 6.434 32.172 18.384 45.041 11.95 11.95 26.657 18.384 43.203 18.384h20.223v101.113c0 16.546 5.515 33.092 16.546 50.557s23.899 30.334 38.607 36.768c71.698 36.768 196.711 55.153 375.038 55.153s303.339-18.384 375.038-55.153c14.707-6.434 27.576-19.303 38.607-36.768s16.546-34.93 16.546-50.557v-102.032h20.223zM860.381 692.51c0 14.707-6.434 22.061-20.223 22.061h-656.316c-13.788 0-20.223-7.354-20.223-22.061v-326.32c0-13.788 6.434-20.223 20.223-20.223h656.316c13.788 0 20.223 6.434 20.223 20.223v326.32zM214.176 129.953c14.707 0 27.576 5.515 36.768 16.546 11.031 9.192 16.546 21.142 16.546 34.93 0 14.707-5.515 27.576-16.546 36.768-9.192 11.031-22.061 16.546-36.768 16.546-13.788 0-24.819-5.515-34.93-16.546-11.031-9.192-16.546-22.061-16.546-36.768 0-13.788 5.515-24.819 16.546-34.93 10.111-11.031 21.142-16.546 34.93-16.546zM307.935 817.522c0-13.788 6.434-20.223 20.223-20.223h366.765c13.788 0 20.223 6.434 20.223 20.223v40.445c0 13.788-6.434 20.223-20.223 20.223h-366.765c-13.788 0-20.223-6.434-20.223-20.223v-40.445zM809.824 129.953c13.788 0 24.819 5.515 34.93 16.546 11.031 9.192 16.546 21.142 16.546 34.93 0 14.707-5.515 27.576-16.546 36.768-9.192 11.031-21.142 16.546-34.93 16.546-14.707 0-27.576-5.515-36.768-16.546-9.192-9.192-14.707-22.061-14.707-36.768 0-13.788 4.596-24.819 14.707-34.93 9.192-11.031 21.142-16.546 36.768-16.546z" />
<glyph unicode="&#xe910;" glyph-name="calendar" d="M959.286 831.334c17.511 0 32.738-6.091 46.442-18.272 12.181-12.181 18.272-27.408 18.272-46.442v-765.906c0-17.511-6.091-32.738-18.272-46.442-13.704-12.181-28.931-18.272-46.442-18.272h-895.334c-17.511 0-32.738 6.091-46.442 18.272-11.42 13.704-17.511 28.931-17.511 46.442v766.668c0 19.033 6.091 34.26 18.272 46.442 13.704 12.181 28.931 18.272 46.442 18.272h63.952v-158.358c0-9.136 3.045-17.511 8.375-24.363 6.852-5.329 14.465-8.375 24.363-8.375h190.335c9.136 0 17.511 3.045 24.363 8.375 5.329 6.852 8.375 14.465 8.375 24.363v157.597h257.332v-158.358c0-9.136 3.045-17.511 8.375-24.363 6.852-5.329 14.465-8.375 24.363-8.375h190.335c9.136 0 17.511 3.045 24.363 8.375 5.329 6.852 8.375 14.465 8.375 24.363v158.358h61.668zM959.286 544.309c0 8.375-3.045 15.227-8.375 22.079-6.852 6.852-14.465 9.897-24.363 9.897h-829.859c-9.136 0-16.749-3.045-22.079-9.897-6.852-6.852-9.897-13.704-9.897-22.079v-511.619c0-9.136 3.045-16.749 9.897-22.079 5.329-6.852 12.943-9.897 22.079-9.897h831.381c9.136 0 17.511 3.045 24.363 9.897 5.329 5.329 8.375 12.943 8.375 22.079v511.619zM280.934 484.164c8.375 0 12.181-3.807 12.181-12.181v-108.11c0-9.136-3.807-13.704-12.181-13.704h-110.394c-8.375 0-12.181 4.568-12.181 13.704v108.11c0 8.375 3.807 12.181 12.181 12.181h110.394zM280.934 229.115c8.375 0 12.181-3.807 12.181-12.181v-110.394c0-8.375-3.807-12.181-12.181-12.181h-110.394c-8.375 0-12.181 3.807-12.181 12.181v110.394c0 8.375 3.807 12.181 12.181 12.181h110.394zM224.595 704.952c-9.136 0-17.511 3.045-24.363 8.375-5.329 6.852-8.375 14.465-8.375 24.363v190.335c0 9.136 3.045 16.749 8.375 22.079 6.852 6.852 15.227 9.897 24.363 9.897h62.43c9.136 0 17.511-3.045 24.363-9.897 5.329-5.329 7.613-12.943 7.613-22.079v-190.335c0-9.136-3.045-17.511-8.375-24.363-6.852-5.329-14.465-8.375-24.363-8.375h-61.668zM535.982 484.164c8.375 0 12.181-3.807 12.181-12.181v-108.11c0-9.136-3.807-13.704-12.181-13.704h-108.11c-9.136 0-13.704 4.568-13.704 13.704v108.11c0 8.375 4.568 12.181 13.704 12.181h108.11zM535.982 229.115c8.375 0 12.181-3.807 12.181-12.181v-110.394c0-8.375-3.807-12.181-12.181-12.181h-108.11c-9.136 0-13.704 3.807-13.704 12.181v110.394c0 8.375 4.568 12.181 13.704 12.181h108.11zM793.314 484.164c8.375 0 12.181-3.807 12.181-12.181v-108.11c0-9.136-3.807-13.704-12.181-13.704h-111.155c-8.375 0-12.181 4.568-12.181 13.704v108.11c0 8.375 3.807 12.181 12.181 12.181h111.155zM793.314 229.115c8.375 0 12.181-3.807 12.181-12.181v-110.394c0-8.375-3.807-12.181-12.181-12.181h-111.155c-8.375 0-12.181 3.807-12.181 12.181v110.394c0 8.375 3.807 12.181 12.181 12.181h111.155zM736.975 704.952c-9.136 0-17.511 3.045-24.363 8.375-5.329 6.852-8.375 14.465-8.375 24.363v190.335c0 9.136 3.045 16.749 8.375 22.079 6.852 6.852 14.465 9.897 24.363 9.897h63.952c8.375 0 15.227-3.045 22.079-9.897 5.329-5.329 8.375-12.943 8.375-22.079v-190.335c0-9.136-3.045-17.511-8.375-24.363-6.852-5.329-13.704-8.375-22.079-8.375h-63.952z" />
<glyph unicode="&#xe911;" glyph-name="clipboard" horiz-adv-x="717" d="M530.561 907.487c27.162 0 42.553-12.676 46.175-38.027h104.12c24.446 0 36.216-11.77 36.216-36.216v-861.935c0-24.446-11.77-36.216-36.216-36.216h-644.64c-24.446 0-36.216 11.77-36.216 36.216v861.935c0 24.446 11.77 36.216 36.216 36.216h102.309c5.432 25.351 21.729 38.027 47.986 38.027h116.796c2.716 34.405 20.824 52.513 54.324 52.513 34.405 0 53.418-17.202 56.134-52.513h116.796zM138.525 806.989h-90.539v-809.422h620.195v809.422h-90.539v-26.256h-439.116v26.256zM162.971 427.629c-25.351 0-38.027-13.581-38.027-39.837 0-25.351 12.676-38.027 38.027-38.027 27.162 0 39.837 12.676 39.837 38.027 0 26.256-13.581 39.837-39.837 39.837zM164.782 234.78c-27.162 0-39.837-12.676-39.837-38.027s13.581-38.027 39.837-38.027c25.351 0 38.027 12.676 38.027 38.027s-12.676 38.027-38.027 38.027zM164.782 630.437c-25.351 0-38.027-12.676-38.027-38.027s12.676-38.027 38.027-38.027c25.351 0 38.027 12.676 38.027 38.027s-12.676 38.027-38.027 38.027zM576.736 576.113c16.297 0 24.446 8.149 24.446 24.446s-9.054 24.446-24.446 24.446h-263.469c-16.297 0-24.446-8.149-24.446-24.446s8.149-24.446 24.446-24.446h263.469zM576.736 367.873c16.297 0 24.446 8.149 24.446 24.446s-8.149 24.446-24.446 24.446h-263.469c-16.297 0-24.446-8.149-24.446-24.446s8.149-24.446 24.446-24.446h263.469zM576.736 172.308c16.297 0 24.446 8.149 24.446 24.446s-8.149 24.446-24.446 24.446h-263.469c-16.297 0-24.446-8.149-24.446-24.446s8.149-24.446 24.446-24.446h263.469z" />
<glyph unicode="&#xe912;" glyph-name="clipboard2" horiz-adv-x="768" d="M192 736h384v-96h-384v96zM192 480h384v-96h-384v96zM192 224h224v-96h-224v96zM672 960h-672v-1024h768v1024c0 0-96 0-96 0zM672 32h-576v832h576c0 0 0-832 0-832z" />
<glyph unicode="&#xe913;" glyph-name="clock" d="M512.763 960c141.162 0 260.96-50.361 360.155-151.082 100.721-99.195 151.082-218.993 151.082-360.155 0-141.925-50.361-263.249-151.082-362.444-99.195-100.721-218.993-151.082-360.155-151.082-141.925 0-263.249 50.361-362.444 151.082-99.958 99.958-150.319 220.519-150.319 362.444 0 141.162 50.361 260.96 151.082 360.155 99.195 100.721 219.756 151.082 361.681 151.082zM533.365 18.408c109.878 5.341 204.495 47.308 283.851 124.376 77.83 79.356 119.034 173.973 124.376 283.851h-57.991c-13.735 0-19.839 7.63-19.839 22.128 0 13.735 6.867 19.839 19.839 19.839h57.991c-5.341 109.878-47.308 204.495-124.376 283.851-79.356 77.83-173.973 119.797-283.851 125.139v-57.991c0-13.735-6.867-19.839-19.839-19.839-14.498 0-22.128 6.867-22.128 19.839v57.991c-110.641-5.341-205.258-47.308-283.851-125.139-77.83-78.593-119.797-173.21-125.139-283.088h57.991c13.735 0 19.839-6.867 19.839-19.839 0-14.498-6.867-22.128-19.839-22.128h-57.991c5.341-109.878 47.308-204.495 124.376-283.851 79.356-77.83 173.973-119.034 283.851-124.376v57.991c0 13.735 7.63 19.839 22.128 19.839 13.735 0 19.839-6.867 19.839-19.839v-58.754zM772.197 245.794c8.393-8.393 12.209-18.313 12.209-30.522 0-10.683-3.815-19.839-12.209-28.232s-17.55-12.209-28.232-12.209c-10.683 0-19.839 3.815-28.232 12.209l-232.727 231.964-3.815 6.104-4.578 7.63-1.526 3.815v4.578l-2.289 7.63v197.627c0 10.683 3.815 19.839 12.209 28.232s18.313 12.209 30.522 12.209c10.683 0 19.839-3.815 28.232-12.209s12.209-17.55 12.209-28.232v-180.841l218.23-219.756z" />
<glyph unicode="&#xe914;" glyph-name="contrast" d="M510.64 960c69.839 0 136.050-13.605 199.539-39.908 61.676-25.396 116.096-62.583 163.26-110.654 48.071-47.164 85.258-101.584 110.654-163.26 27.21-63.49 39.908-129.701 39.908-199.539 0-68.025-13.605-134.236-39.908-196.818-25.396-61.676-62.583-116.096-110.654-163.26-47.164-48.071-101.584-85.258-163.26-110.654-63.49-27.21-129.701-39.908-199.539-39.908-68.025 0-134.236 13.605-196.818 39.908-61.676 25.396-116.096 62.583-163.26 110.654-48.071 47.164-85.258 101.584-110.654 163.26-26.303 62.583-39.908 128.794-39.908 196.818 0 69.839 13.605 136.050 39.908 199.539 25.396 61.676 62.583 116.096 110.654 163.26 47.164 48.071 101.584 85.258 163.26 110.654 63.49 26.303 128.794 39.908 196.818 39.908zM510.64 32.142c58.048 0 111.561 10.884 163.26 31.745 49.885 21.768 93.421 50.792 132.422 88.886 37.187 39.001 67.118 83.444 88.886 132.422 21.768 50.792 31.745 104.305 31.745 160.539 0 58.048-10.884 111.561-31.745 163.26-21.768 49.885-50.792 93.421-88.886 132.422-39.001 37.187-83.444 67.118-132.422 88.886-50.792 21.768-105.212 31.745-163.26 31.745v-829.903z" />
<glyph unicode="&#xe915;" glyph-name="corel" horiz-adv-x="953" d="M494.437 493.15l78.326-17.741c0.489-0.056 1.055-0.089 1.628-0.089 8.279 0 14.991 6.712 14.991 14.991 0 0.343-0.012 0.684-0.034 1.021l0.002-0.046-16.233 76.818zM549.433 738.683l-87.196-17.563-20.225-95.268-96.067-15.967-21.378-86.309 146.894-25.103 96.599 92.341-18.628 147.87zM707.149 960h-496.743c-0.084 0-0.183 0.001-0.283 0.001-37.143 0-67.353-29.687-68.195-66.628l-0.001-0.078v-633.613h-141.927v-229.477h141.927v-27.498c0-38.498 39.739-66.705 75.753-66.705h667.321c0.212-0.002 0.462-0.004 0.712-0.004 36.966 0 66.974 29.792 67.323 66.676v716.585zM702.004 917.688l195.859-192.044h-195.859zM143.789 87.418q-15.346 19.692-15.346 57.125c-0.013 0.624-0.021 1.359-0.021 2.096 0 14.036 2.744 27.432 7.726 39.679l-0.254-0.705c4.489 11.218 11.89 20.474 21.278 27.106l0.188 0.126c8.849 5.956 19.748 9.507 31.476 9.507 0.473 0 0.944-0.006 1.414-0.017l-0.070 0.001c14.511-0.048 28.089-3.995 39.756-10.846l-0.372 0.202-10.556-32.288c-3.905 2.25-8.548 4.485-13.357 6.392l-0.747 0.261c-4.428 1.686-9.549 2.662-14.898 2.662-0.095 0-0.19 0-0.285-0.001h0.015c-0.034 0-0.075 0-0.115 0-8.318 0-15.518-4.791-18.989-11.764l-0.055-0.123c-4.368-8.551-6.927-18.651-6.927-29.349 0-1.252 0.035-2.496 0.104-3.731l-0.008 0.171q0-43.376 27.942-43.376c0.060 0 0.13 0 0.201 0 5.808 0 11.38 1.008 16.552 2.857l-0.343-0.107c6.424 2.271 11.666 4.516 16.744 7.043l-0.866-0.39v-34.328c-10.103-5.262-22.062-8.349-34.742-8.349-0.447 0-0.893 0.004-1.338 0.011l0.067-0.001c-0.816-0.045-1.771-0.071-2.732-0.071-16.781 0-31.726 7.858-41.357 20.094l-0.085 0.113zM919.595 2.705c-0.395-17.82-14.935-32.115-32.813-32.115-0.19 0-0.379 0.002-0.568 0.005h-667.204c-19.249 0-41.070 16.676-41.070 32.111h1.331v27.498h438.376v229.477h-438.376v408.039l131.193-137.048 18.362 81.874-149.555 156.297v34.062l167.917-175.545 79.834 14.636 16.233 80.277-194.883 203.044h33.974l177.408-186.279 82.85 14.547-164.369 171.731h290.417v-234.356h251.033zM248.371 69.677v150.797h44.352c1.096 0.071 2.376 0.112 3.666 0.112 17.14 0 32.611-7.149 43.592-18.628l0.021-0.022c10.493-13.099 16.839-29.914 16.839-48.212 0-1.763-0.059-3.512-0.175-5.246l0.013 0.235c0.107-1.607 0.168-3.485 0.168-5.376 0-19.903-6.737-38.233-18.055-52.833l0.147 0.197c-11.32-12.606-27.671-20.499-45.866-20.499-1.215 0-2.422 0.035-3.619 0.105l0.165-0.008zM487.872 69.677h-38.32l-26.611 54.73h-8.87v-54.73h-34.595v150.797h41.691q51.892 0 51.892-44.352c0.033-0.654 0.053-1.42 0.053-2.191 0-16.351-8.59-30.696-21.504-38.767l-0.192-0.112zM292.723 187.299h-9.58v-84.269h7.629c0.59-0.048 1.277-0.075 1.97-0.075 8.626 0 16.265 4.232 20.952 10.732l0.052 0.076c4.67 8.255 7.422 18.128 7.422 28.645 0 1.469-0.054 2.926-0.159 4.369l0.011-0.193c0.088 1.155 0.138 2.502 0.138 3.861 0 9.833-2.618 19.054-7.196 27.004l0.139-0.263c-4.371 6.19-11.495 10.182-19.551 10.182-0.643 0-1.28-0.025-1.91-0.075l0.083 0.005zM420.723 189.339h-6.83v-34.328h6.387q17.741 0 17.741 18.805 0.266 15.523-17.297 15.523z" />
<glyph unicode="&#xe916;" glyph-name="dirigentes" horiz-adv-x="1207" d="M284.869 681.525c0-56.568-51.539-108.069-108.069-108.069s-108.030 51.461-108.030 108.069 51.461 108.185 108.069 108.185 108.185-51.539 108.030-108.185zM79.57 530.767c-44.054 0-79.57-43.898-79.57-97.815-0.006-0.455-0.009-0.993-0.009-1.532 0-5.701 0.386-11.311 1.133-16.807l-0.071 0.64 65.223-405.452c6.939-39.376 39.882-73.761 77.153-73.761h66.276c37.231 0 70.174 34.385 77.153 73.761l65.067 405.452c0.838 5.298 1.333 11.428 1.364 17.667v0.032c0 53.878-35.516 97.776-79.57 97.776h-194.149zM730.866 830.216c0-67.874-61.792-129.628-129.628-129.628s-129.511 61.753-129.511 129.628 61.636 129.784 129.511 129.784 129.784-61.831 129.628-129.784zM471.416 649.478c-56.997 0-102.922-52.67-102.922-117.308-0.008-0.558-0.013-1.218-0.013-1.878 0-6.833 0.501-13.549 1.467-20.114l-0.090 0.744 84.716-486.581c8.967-47.251 51.656-88.498 99.882-88.498h86.042c48.225 0 90.876 41.247 99.882 88.498l84.209 486.542c1.095 6.358 1.745 13.708 1.793 21.202v0.046c0 64.638-46.003 117.308-102.922 117.308h-251.731zM1137.994 681.525c0-56.568-51.5-108.069-108.069-108.069s-108.069 51.461-108.069 108.069 51.461 108.185 108.069 108.185 108.185-51.539 108.069-108.185zM932.267 530.767c-44.171 0-79.843-43.898-79.843-97.776-0.006-0.467-0.010-1.017-0.010-1.569 0-5.688 0.386-11.285 1.134-16.768l-0.071 0.637 65.691-405.452c6.978-39.376 40.038-73.761 77.426-73.761h66.705c37.387 0 70.486 34.385 77.426 73.761l65.34 405.452c0.842 5.301 1.337 11.431 1.364 17.672v0.028c0 53.878-35.672 97.776-79.843 97.776h-195.319z" />
<glyph unicode="&#xe917;" glyph-name="doc" horiz-adv-x="796" d="M795.944-36.056c0-18.93-9.014-27.944-27.944-27.944h-740.056c-18.93 0-27.944 9.014-27.944 27.944v968.113c0 18.93 9.014 27.944 27.944 27.944h597.634c6.31 0 13.521-2.704 19.831-8.113l141.521-141.521c5.408-6.31 8.113-13.521 8.113-19.831v-826.592zM740.056 731.944h-142.423c-19.831 0-29.746 9.014-29.746 27.944v144.225h-512v-911.324h684.169v739.155zM597.634 618.366c18.93 0 27.944-9.014 27.944-27.944s-9.014-27.944-27.944-27.944h-397.521c-19.831 0-29.746 9.014-29.746 27.944s9.915 27.944 29.746 27.944h397.521zM597.634 503.887c18.93 0 27.944-9.014 27.944-27.944s-9.014-27.944-27.944-27.944h-397.521c-19.831 0-29.746 9.014-29.746 27.944s9.915 27.944 29.746 27.944h397.521zM597.634 392.113c18.93 0 27.944-9.915 27.944-29.746 0-18.93-9.014-27.944-27.944-27.944h-397.521c-19.831 0-29.746 9.014-29.746 27.944 0 19.831 9.915 29.746 29.746 29.746h397.521zM597.634 278.535c18.93 0 27.944-9.915 27.944-29.746 0-18.93-9.014-27.944-27.944-27.944h-397.521c-19.831 0-29.746 9.014-29.746 27.944 0 19.831 9.915 29.746 29.746 29.746h397.521zM597.634 164.056c18.93 0 27.944-9.014 27.944-27.944 0-19.831-9.014-29.746-27.944-29.746h-397.521c-19.831 0-29.746 9.915-29.746 29.746 0 18.93 9.915 27.944 29.746 27.944h397.521zM625.577 789.634h101.859l-101.859 102.761v-102.761z" />
<glyph unicode="&#xe918;" glyph-name="document" horiz-adv-x="745" d="M547.785 960c6.423 0 11.928-1.835 16.516-6.423l175.254-183.513c3.67-3.67 6.423-9.176 6.423-16.516v-771.67c0-31.197-16.516-46.796-48.631-46.796h-648.717c-32.115 0-48.631 15.599-48.631 46.796v956.1c0 14.681 7.341 22.022 22.022 22.022h525.763zM46.796-17.204h651.47v745.061h-150.48c-16.516 0-24.774 7.341-24.774 22.022v163.326h-476.215v-930.409zM372.53 727.857c14.681 0 22.022-8.258 22.022-24.774 0-14.681-7.341-22.022-22.022-22.022h-210.122c-14.681 0-22.022 7.341-22.022 22.022 0 16.516 7.341 24.774 22.022 24.774h210.122zM581.735 587.47c14.681 0 22.022-7.341 22.022-22.022 0-16.516-7.341-24.774-22.022-24.774h-419.326c-14.681 0-22.022 8.258-22.022 24.774 0 14.681 7.341 22.022 22.022 22.022h419.326zM581.735 448.918c14.681 0 22.022-8.258 22.022-24.774 0-14.681-7.341-22.022-22.022-22.022h-419.326c-14.681 0-22.022 7.341-22.022 22.022 0 16.516 7.341 24.774 22.022 24.774h419.326zM581.735 308.53c14.681 0 22.022-7.341 22.022-22.022 0-16.516-7.341-24.774-22.022-24.774h-419.326c-14.681 0-22.022 8.258-22.022 24.774 0 14.681 7.341 22.022 22.022 22.022h419.326zM581.735 168.143c14.681 0 22.022-7.341 22.022-22.022 0-16.516-7.341-24.774-22.022-24.774h-419.326c-14.681 0-22.022 8.258-22.022 24.774 0 14.681 7.341 22.022 22.022 22.022h419.326zM569.806 774.652h101.849l-101.849 103.685v-103.685z" />
<glyph unicode="&#xe919;" glyph-name="dollar" d="M511.619 960c141.609 0 262.662-49.487 363.158-148.461 98.974-100.497 148.461-221.549 148.461-363.158s-49.487-262.662-148.461-361.636c-100.497-100.497-221.549-150.745-363.158-150.745s-262.662 50.248-361.636 150.745c-99.735 98.974-149.984 219.265-149.984 361.636 0 141.609 50.248 262.662 150.745 363.158 98.974 98.974 219.265 148.461 360.874 148.461zM513.903 28.883c116.485 0 216.22 41.112 299.206 122.575 82.986 82.986 124.098 182.721 124.098 299.206s-41.874 216.22-124.098 299.206c-82.986 82.986-182.721 124.098-299.206 124.098s-216.22-41.874-299.206-124.098c-81.463-83.747-122.575-183.483-122.575-299.967s41.112-216.22 122.575-299.206c82.986-81.463 182.721-121.814 299.206-121.814zM654.751 437.722c29.692-24.363 44.158-57.862 44.158-100.497 0-44.158-16.749-80.702-50.248-110.394-28.17-24.363-63.191-38.828-104.303-44.158v-40.351c0-19.795-9.897-30.454-30.454-30.454s-30.454 9.897-30.454 30.454v41.874c-44.158 5.329-78.418 17.511-102.019 35.783-35.783 28.17-54.055 73.088-54.055 134.757 0 10.659 3.045 19.033 8.375 25.886 6.852 6.852 14.465 9.897 24.363 9.897 8.375 0 15.227-3.045 22.079-9.897 6.852-5.329 9.897-13.704 9.897-25.886-1.523-37.306 9.136-65.475 31.976-84.509 14.465-12.181 35.783-19.795 62.43-24.363v194.141c-47.203 12.181-81.463 28.17-104.303 47.964-28.17 24.363-41.874 55.578-41.874 94.406 0 45.68 15.988 82.225 47.964 110.394 26.647 22.84 59.384 35.783 98.213 38.067v28.17c0 19.033 9.897 28.17 30.454 28.17 19.033 0 28.17-9.136 28.17-28.17v-28.17c38.828-3.807 70.804-16.749 96.69-38.067 28.17-25.124 41.874-57.862 41.874-98.213 0-12.181-3.045-21.317-9.897-28.17-8.375-6.852-15.988-9.897-24.363-9.897-9.136 0-17.511 3.045-24.363 9.897s-9.897 15.227-9.897 25.886c-1.523 26.647-10.659 47.203-28.17 60.146-10.659 8.375-25.124 13.704-41.874 15.988v-180.437c51.010-14.465 87.554-31.215 109.633-50.248zM427.872 536.696c10.659-12.181 30.454-22.84 57.862-31.976v164.449c-19.033-3.045-35.022-9.136-47.964-19.795-19.795-14.465-30.454-35.022-30.454-60.146 0-22.079 6.852-39.59 20.556-52.532zM598.412 269.466c22.84 14.465 34.26 35.783 34.26 62.43 0 28.17-7.613 48.726-22.079 62.43-12.181 9.136-34.26 19.033-66.236 28.17v-176.63c21.317 3.807 38.828 11.42 54.055 23.601z" />
<glyph unicode="&#xe91a;" glyph-name="earth" d="M511.537 960c140.858 0 261.329-50.042 361.412-150.125s150.125-220.554 150.125-361.412c0-140.858-50.042-261.329-150.125-361.412s-220.554-150.125-361.412-150.125c-140.858 0-261.329 50.042-361.412 150.125-100.083 99.157-150.125 219.627-150.125 361.412 0 140.858 50.042 261.329 150.125 361.412s220.554 150.125 361.412 150.125zM698.729 16.623c63.942 27.801 119.544 67.649 166.805 121.397h-8.34l-12.047-10.194h-28.728l-21.314 25.948 18.534 28.728 16.681 53.748v35.214l38.921 50.968-10.194 16.681 12.047 43.555-1.853 22.241-15.754 26.874-30.581-6.487-35.214 6.487-55.602 6.487-35.214 30.581-49.115 22.241-16.681 33.361 20.387 22.241-10.194 28.728-16.681 26.874 16.681 43.555 37.068 30.581 74.136 37.068 55.602 1.853 57.455-3.707 37.068-35.214v10.194l-37.068 25.021-47.262 6.487 10.194 25.021-25.021 16.681-15.754-25.948-30.581-10.194-22.241-8.34-45.408 14.827-3.707 22.241 16.681 16.681 30.581 14.827 14.827 20.387-35.214 6.487-43.555 26.874-3.707 35.214-18.534 12.047-37.068 8.34-34.288 11.12 20.387 6.487c-28.728 5.56-56.529 8.34-84.329 8.34v-16.681l-37.068-12.047-16.681-18.534h-30.581v24.094l8.34 16.681c-16.681-2.78-32.434-6.487-49.115-10.194l-1.853-3.707c-5.56-3.707-10.194-12.047-14.827-22.241l-3.707-10.194c-0.927-2.78-1.853-4.633-1.853-6.487-2.78-2.78-0.927-9.267 3.707-20.387l-6.487-21.314-38.921-8.34-20.387-10.194v-30.581l-20.387-37.068-20.387-30.581v-26.874l16.681-40.775-25.021 8.34-16.681 18.534-10.194 35.214-62.089-1.853c-40.775-57.455-57.455-90.816-49.115-101.010 8.34-9.267 17.607-23.167 28.728-40.775h35.214l8.34-14.827-14.827-10.194-10.194-25.021 1.853-14.827-1.853-22.241 22.241 1.853 22.241 20.387 117.69-8.34 43.555-30.581 50.968-59.309 20.387-6.487 3.707-20.387-10.194-30.581-15.754-6.487c-22.241-11.12-32.434-19.461-30.581-26.874 0.927-6.487-5.56-25.021-20.387-53.748l14.827-38.921-55.602-26.874-8.34-32.434-3.707-57.455 16.681-32.434-10.194-16.681-37.068 14.827-45.408 43.555-20.387 59.309-50.968 88.036-18.534 28.728-32.434 18.534-6.487 37.068 1.853 80.623 59.309 26.874-26.874 12.047-16.681 30.581-8.34 18.534-28.728 16.681-38.921 14.827c-5.56-27.801-8.34-53.748-8.34-80.623 0-97.303 27.801-186.266 84.329-266.889 53.748-77.843 125.104-135.298 214.067-170.512l14.827 10.194 43.555-25.948 14.827 22.241-1.853 20.387 18.534-6.487 14.827-20.387 25.021-10.194h62.089l20.387 14.827 75.989 16.681 40.775-6.487 29.654-10.194z" />
<glyph unicode="&#xe91b;" glyph-name="eighth-note" d="M695.887 109.972c-36.958 31.549-55.887 70.31-55.887 113.577s18.93 82.028 55.887 113.577c36.958 30.648 82.93 45.972 136.113 45.972 19.831 0 41.465-3.606 64-9.915v299.268l-512-128v-479.549c0-30.648-20.732-60.394-62.197-88.338-39.662-27.042-82.93-39.662-129.803-39.662-53.183 0-98.254 15.324-136.113 45.972-36.958 31.549-55.887 69.408-55.887 113.577s18.93 82.028 55.887 113.577c36.958 30.648 82.93 45.972 136.113 45.972 21.634 0 42.366-3.606 64-9.915v554.366l640 159.549h128v-735.549c0-44.169-18.93-82.028-55.887-113.577-36.958-30.648-82.93-45.972-136.113-45.972-53.183-0.901-99.155 14.423-136.113 45.070z" />
<glyph unicode="&#xe91c;" glyph-name="email-2" horiz-adv-x="1029" d="M686.907 827.343h193.533v-150.829l149.012-114.484v-625.122h-1029.452v624.213l142.651 110.85v155.372h201.711l171.727 132.657 170.818-132.657zM49.973 8.689l415.233 268.039-415.233 225.335v-493.374zM142.651 508.422v99.038l-74.506-58.151 74.506-40.887zM110.85-13.118h814.112l-407.056 263.496-407.056-263.496zM514.272 306.712l314.378 171.727v178.996h1.817v117.21h-635.116v-294.389l318.921-173.544zM427.045 827.343h177.178l-89.043 68.146-88.135-68.146zM977.661 12.323v489.739l-408.873-223.517 408.873-266.222zM880.44 504.788l80.866 44.522-80.866 64.511v-109.033z" />
<glyph unicode="&#xe91d;" glyph-name="email" d="M1007.188 799.522c10.699 0 16.048-6.113 16.048-18.34v-52.728c-326.304-225.433-492.896-340.824-499.009-346.173-3.821-3.057-7.642-5.349-12.227-6.113-4.585 1.528-8.406 3.821-12.227 6.113-6.878 5.349-173.469 120.74-499.773 346.937v51.964c0 12.227 5.349 18.34 16.048 18.34h991.14zM512 303.57c12.227 0 24.454 3.057 34.388 9.934l477.612 330.125v-535.69c0-12.227-5.349-18.34-16.048-18.34h-991.904c-10.699 0.764-16.048 6.878-16.048 19.104v535.69l477.612-330.125c9.934-6.878 22.161-10.699 34.388-10.699z" />
<glyph unicode="&#xe91e;" glyph-name="excel" horiz-adv-x="936" d="M689.744 960h-497.067c-37.065-0.090-67.177-29.738-68.013-66.615l-0.001-0.078v-269.502l-124.663-18.766v-502.177l124.663-19.47v-80.701c0-38.5 39.734-66.693 75.679-66.693h667.278c0.184-0.002 0.402-0.003 0.62-0.003 36.976 0 66.997 29.776 67.393 66.658v716.565zM684.634 917.623l195.849-191.972h-195.849zM108.981 245.852l72.595 112.77-67.926 105.721h51.187l47.134-78.674 46.253 78.674h50.13l-68.719-108.453 73.917-110.215h-52.861l-50.834 82.727-51.275-82.551zM901.892 2.693c-0.441-17.807-14.98-32.073-32.852-32.073-0.189 0-0.378 0.002-0.566 0.005h-666.898c-19.206 0-40.879 14.977-40.879 30.395l1.145 1.674v74.798l208.183-32.597h49.425v615.563h-47.575l-210.033-31.1v264.304c0.441 17.807 14.98 32.073 32.852 32.073 0.189 0 0.378-0.002 0.566-0.005h455.984v-234.349h251.088zM468.61 134.756h149.596v-84.489h-149.596v84.489zM651.596 134.756h150.917v-84.489h-150.917v84.489zM467.289 264.882h150.917v-84.489h-150.917v84.489zM651.596 264.882h150.917v-84.489h-150.917v84.489zM467.289 395.007h150.917v-84.489h-150.917v84.489zM651.596 395.007h150.917v-84.489h-150.917v84.489zM651.596 525.133h150.917v-84.489h-150.917v84.489zM467.289 525.133h150.917v-84.489h-150.917v84.489zM651.596 655.258h150.917v-84.489h-150.917v84.489zM467.289 655.258h150.917v-84.489h-150.917v84.489z" />
<glyph unicode="&#xe91f;" glyph-name="f" horiz-adv-x="783" d="M96.681 818.383c0 29.957-8.17 51.745-24.511 64-16.34 10.894-39.489 19.064-72.17 23.149v54.468c147.064-1.362 260.085-2.723 341.787-2.723 132.085 0 277.787 1.362 434.383 2.723l5.447-160.681h-57.191c-13.617 40.851-36.766 66.723-69.447 78.979-29.957 12.255-84.426 17.702-163.404 17.702h-219.234v-389.447h193.362c47.66 0 80.34 2.723 96.681 9.532 24.511 9.532 39.489 29.957 44.936 59.915h42.213v-196.085h-42.213c-5.447 25.872-20.426 43.574-42.213 51.745-17.702 8.17-51.745 12.255-99.404 12.255h-193.362v-329.532c0-47.66 10.894-83.064 32.681-102.128 17.702-16.34 49.021-25.872 93.957-27.234v-47.66h-398.979v51.745c32.681 1.362 55.83 9.532 72.17 21.787 16.34 13.617 24.511 36.766 24.511 66.723v740.766z" />
<glyph unicode="&#xe920;" glyph-name="flag" horiz-adv-x="928" d="M99.49 860.51c-12.202-11.263-26.28-16.895-41.298-16.895-16.895 0-30.973 5.632-41.298 16.895-11.263 10.324-16.895 24.403-16.895 41.298s5.632 30.035 16.895 41.298c11.263 11.263 24.403 16.895 41.298 16.895 15.017 0 29.096-5.632 41.298-16.895 11.263-11.263 16.895-25.342 16.895-41.298s-5.632-30.973-16.895-41.298zM81.657 807.949c0 15.017-7.509 22.526-22.526 22.526s-22.526-7.509-22.526-22.526v-849.423c0-15.017 7.509-22.526 22.526-22.526s22.526 7.509 22.526 22.526v849.423zM928.264 348.040c-61.008 41.298-129.525 60.070-203.674 54.438-45.991-3.754-113.569-22.526-203.674-54.438l-49.745-18.772-51.622-15.017c-37.544-11.263-71.333-17.833-102.306-20.649-75.087-6.57-142.665 11.263-203.674 54.438v478.68c61.008-43.175 129.525-61.008 203.674-54.438 45.991 3.754 113.569 22.526 203.674 54.438l51.622 16.895 49.745 16.895c37.544 11.263 71.333 17.833 102.306 20.649 75.087 5.632 142.665-12.202 203.674-54.438v-478.68z" />
<glyph unicode="&#xe921;" glyph-name="g" horiz-adv-x="990" d="M921.21 183.217v-189.967c-144.427-39.034-269.337-57.25-374.729-57.25-157.438 0-288.854 49.443-392.945 147.029-102.79 96.285-153.535 214.689-153.535 357.814 0 156.137 53.347 282.348 161.342 378.633 106.694 93.682 239.41 140.524 398.15 140.524 31.227 0 93.682-5.205 187.365-16.915 67.659-11.71 127.512-23.421 182.16-35.131l14.313-182.16h-66.358c-27.324 53.347-57.25 93.682-92.381 118.404-48.142 35.131-110.597 52.046-187.365 52.046-117.103 0-212.086-35.131-282.348-106.694-79.37-79.37-118.404-193.87-118.404-343.502 0-113.199 29.926-210.785 89.779-291.456 76.767-104.091 186.064-156.137 329.189-156.137 45.54 0 93.682 11.71 141.825 35.131 0 3.903 1.301 27.324 2.602 71.563s2.602 71.563 2.602 80.671c0 45.54-5.205 78.069-14.313 94.983-11.71 20.818-35.131 35.131-68.961 40.335v49.443h312.274v-45.54c-27.324-1.301-45.54-9.108-54.648-20.818s-14.313-31.227-14.313-57.25v-63.756z" />
<glyph unicode="&#xe922;" glyph-name="globe" horiz-adv-x="1034" d="M517.71 960c141.609 0 263.423-50.248 365.442-150.745 100.497-98.974 150.745-219.265 150.745-361.636 0-140.848-50.248-261.139-150.745-361.636-102.019-100.497-223.833-150.745-365.442-150.745-143.132 0-264.946 50.248-365.442 150.745-101.258 101.258-152.268 221.549-152.268 362.397 0 141.609 51.010 262.662 152.268 361.636 100.497 99.735 222.311 149.984 365.442 149.984zM128.666 644.806c-26.647-49.487-41.874-102.019-46.442-156.836h156.836c3.045 54.816 9.136 107.349 19.795 156.836h-130.189zM258.855 251.194c-10.659 49.487-17.511 102.019-19.795 158.358h-156.836c3.807-56.339 19.033-108.871 46.442-158.358h130.189zM339.557 843.515c-63.191-28.17-115.723-68.52-158.358-120.291h100.497c15.227 46.442 35.022 86.793 57.862 120.291zM180.437 172.776c42.635-52.532 95.929-92.122 158.358-120.291-22.84 35.022-41.874 74.611-57.862 120.291h-100.497zM478.12 644.806h-134.757c-13.704-51.010-21.317-102.781-24.363-156.836h158.358v156.836zM478.12 410.314h-159.12c3.045-54.816 10.659-108.11 24.363-158.358h134.757v158.358zM478.12 871.685c-44.158-19.795-80.702-69.282-110.394-148.461h110.394v148.461zM478.12 172.776h-110.394c29.692-79.179 66.236-128.666 110.394-148.461v148.461zM558.061 723.224h110.394c-30.454 79.179-67.759 128.666-110.394 148.461v-148.461zM558.061 487.97h156.836c-3.045 53.294-9.897 105.826-22.079 156.836h-134.757v-156.836zM692.818 251.194c12.181 51.010 19.033 103.542 22.079 158.358h-156.836v-158.358h134.757zM558.061 24.315c42.635 19.795 79.941 69.282 110.394 148.461h-110.394v-148.461zM854.983 723.224c-44.158 52.532-96.69 92.122-158.358 120.291 22.84-33.499 41.112-73.85 56.339-120.291h102.019zM696.625 52.485c61.668 28.17 114.201 68.52 158.358 120.291h-102.019c-15.227-44.919-33.499-85.27-56.339-120.291zM775.042 644.806c10.659-49.487 17.511-102.019 19.795-156.836h158.358c-5.329 54.816-20.556 107.349-46.442 156.836h-131.712zM907.515 251.194c25.124 49.487 41.112 102.019 46.442 158.358h-158.358c-3.045-56.339-9.136-108.871-19.795-158.358h131.712z" />
<glyph unicode="&#xe923;" glyph-name="headset" horiz-adv-x="1260" d="M1260.325 251.026v-158.069c-0.316-86.753-70.715-156.957-157.512-156.957 0 0-0.001 0-0.001 0v0c-0.033 0-0.073 0-0.112 0-43.465 0-78.701 35.236-78.701 78.701 0 0.156 0 0.313 0.001 0.469v-0.024 472.205c0 217.541-176.352 393.893-393.893 393.893s-393.893-176.352-393.893-393.893v0-472.205c0-0.033 0-0.072 0-0.111 0-43.465-35.236-78.701-78.701-78.701-0.039 0-0.078 0-0.117 0h0.006c-86.633 0.062-156.897 70.053-157.401 156.575v158.117c0 86.992 70.521 157.513 157.513 157.513v0 78.812c-0.142 4.32-0.222 9.398-0.222 14.495 0 261.037 211.612 472.65 472.65 472.65s472.65-211.612 472.65-472.65c0-5.097-0.081-10.176-0.241-15.234l0.019 0.739v-78.812c0.132 0 0.288 0.001 0.445 0.001 86.992 0 157.513-70.521 157.513-157.513 0 0 0-0.001 0-0.001v0z" />
<glyph unicode="&#xe924;" glyph-name="hourglass" horiz-adv-x="853" d="M804.293 28.73c0.216 0.004 0.471 0.006 0.727 0.006 13.139 0 25.013-5.416 33.512-14.138l0.010-0.010c8.704-8.043 14.136-19.518 14.136-32.26s-5.432-24.217-14.106-32.234l-0.029-0.027c-8.508-8.732-20.382-14.148-33.521-14.148-0.255 0-0.51 0.002-0.765 0.006h-755.864c-0.226-0.004-0.492-0.006-0.758-0.006-13.129 0-24.994 5.417-33.479 14.138l-0.010 0.011c-8.704 8.043-14.136 19.518-14.136 32.26s5.432 24.217 14.106 32.234l0.029 0.027c8.496 8.732 20.36 14.149 33.49 14.149 0.267 0 0.533-0.002 0.798-0.007l-0.040 0.001h30.579v147.159q0 94.717 104.808 207.629c10.874 12.194 22.054 23.374 33.841 33.891l0.407 0.357c9.217 10.352 19.225 19.609 30.060 27.832l0.518 0.377q-28.285 24.157-52.442 48.391c-19.672 19.39-37.558 40.478-53.458 63.065l-0.972 1.456q-63.145 84.626-63.145 159.238v149.147h-30.579c-0.245-0.005-0.533-0.007-0.822-0.007-13.11 0-24.954 5.419-33.415 14.138l-0.011 0.012c-8.48 7.424-13.805 18.271-13.805 30.361 0 0.668 0.016 1.333 0.048 1.993l-0.004-0.093c-0.017 0.44-0.027 0.956-0.027 1.474 0 12.27 5.475 23.261 14.115 30.664l0.055 0.046c8.496 8.732 20.36 14.149 33.49 14.149 0.267 0 0.533-0.002 0.798-0.007l-0.040 0.001h755.902c0.216 0.004 0.471 0.006 0.727 0.006 13.139 0 25.013-5.416 33.512-14.138l0.010-0.010c8.696-7.462 14.171-18.465 14.171-30.746 0-0.532-0.010-1.063-0.031-1.59l0.002 0.076c0.019-0.462 0.030-1.004 0.030-1.548 0-12.271-5.476-23.264-14.118-30.666l-0.055-0.046c-8.484-8.731-20.338-14.149-33.458-14.149-0.278 0-0.555 0.002-0.832 0.007l0.042-0.001h-40.364v-149.071q0-72.548-60.469-157.25c-16.898-24.033-34.782-45.12-54.381-64.473l-0.049-0.048c-15.812-17.199-32.254-33.059-49.6-47.894l-0.778-0.65q26.145-24.157 50.378-48.391c20.006-18.587 37.856-38.985 53.459-61.082l0.818-1.222q60.469-84.626 60.469-161.226v-147.159zM693.369 175.889q0 64.521-68.802 145.248c-16.976 20.943-35.475 39.442-55.722 55.871l-0.695 0.546c-13.753 14.084-28.919 26.676-45.303 37.582l-1.024 0.641c-8.652 7.285-14.111 18.122-14.111 30.235s5.459 22.95 14.051 30.186l0.060 0.049q20.105 16.13 46.327 40.287c20.545 17.898 39.019 37.027 55.748 57.63l0.67 0.851q68.802 82.639 68.802 143.108v149.147h-532.144v-149.147q0-62.533 66.508-143.108 26.145-30.579 56.417-60.469 26.145-22.169 48.391-38.223c8.671-6.417 14.231-16.61 14.231-28.101 0-0.872-0.032-1.736-0.095-2.592l0.007 0.114c0.007-0.264 0.010-0.575 0.010-0.886 0-11.955-5.489-22.629-14.084-29.638l-0.069-0.055c-17.935-13.318-33.709-26.522-48.688-40.563l0.297 0.276c-19.801-18.495-38.223-37.571-55.629-57.557l-0.789-0.925q-66.508-82.639-66.508-141.12v-147.159h532.144zM199.525 129.562q0 34.248 225.746 112.911 227.734-74.612 227.734-112.911v-52.442h-453.48zM647.043 720.111q0-24.157-34.248-68.802c-24.537-30.058-50.281-56.964-77.978-81.731l-0.685-0.602q-54.43-52.366-110.847-98.769-217.719 167.265-217.719 249.903v46.403h441.478z" />
<glyph unicode="&#xe925;" glyph-name="illustrator" horiz-adv-x="934" d="M279.829 759.747q-1.661 7.083-4.023 18.451c-1.574 7.52-2.623 12.942-3.148 16.265q-0.7-4.547-2.711-14.953t-8.745-41.1h23.436zM687.68 960h-497.047c-0.005 0-0.011 0-0.016 0-37.148 0-67.36-29.696-68.191-66.644l-0.001-0.077v-23.96h-122.425v-229.547h122.425v-637.049c0-38.477 39.788-66.722 75.729-66.722h667.568c0.209-0.002 0.455-0.004 0.702-0.004 36.974 0 66.987 29.801 67.331 66.693v716.571zM682.608 917.676l195.88-192.383h-195.88zM900.7 2.722c-0.438-17.819-14.987-32.097-32.871-32.097-0.188 0-0.375 0.002-0.562 0.005h-667.714c-19.238 0-41.012 16.702-41.012 32.093h1.312v637.049h438.457v229.547h-438.457v23.96c0.628 17.665 15.1 31.746 32.86 31.746 0.161 0 0.321-0.001 0.481-0.003h456.010v-234.357h251.496zM216.868 684.805l35.941 131.17h39.264l36.378-131.17h-32.53l-5.422 24.398h-35.853l-5.597-24.398zM340.867 684.805v130.47h29.907v-130.295zM402.254 565.528l-120.851-426.040h78.177l33.929 123.125h104.936l35.853-123.212h77.827l-121.114 426.127zM402.254 315.956q36.553 146.561 44.248 183.638c1.312-6.996 3.323-16.44 6.209-28.42s15.828-63.749 38.739-155.305zM663.37 454.996h73.28v-315.595h-73.28v315.595zM740.148 530.812c0-22.168-17.97-40.138-40.138-40.138s-40.138 17.97-40.138 40.138c0 22.168 17.97 40.138 40.138 40.138s40.138-17.97 40.138-40.138z" />
<glyph unicode="&#xe926;" glyph-name="image" horiz-adv-x="1152" d="M1118.266 960l34.209-34.209v-956.341l-34.209-34.209h-1084.056l-34.209 34.209v956.341l34.209 34.209h1084.056zM1050.607 821.642l-34.209 34.209h-880.321l-34.209-34.209v-747.284l34.209-34.209h880.321l34.209 34.209v747.284zM881.841 481.069l100.347-306.364v-66.138h-811.902v66.138l200.695 170.287 138.358-102.628 202.215 340.573 170.287-101.868zM339.053 548.728c-66.898 0-100.347 34.209-100.347 101.868s33.449 101.868 100.347 101.868c68.419 0 101.868-34.209 101.868-101.868s-34.209-101.868-101.868-101.868z" />
<glyph unicode="&#xe927;" glyph-name="left-arrow" horiz-adv-x="590" d="M471.799 960l118.329-128.19-354.228-383.81 354.228-383.81-118.329-128.19-471.799 512 471.799 512z" />
<glyph unicode="&#xe928;" glyph-name="left-down" horiz-adv-x="1777" d="M0 754.674l222.437 205.326 665.995-614.663 665.995 614.663 222.437-205.326-888.432-818.674-888.432 818.674z" />
<glyph unicode="&#xe929;" glyph-name="left-up" horiz-adv-x="1777" d="M1776.864 141.326l-222.437-205.326-665.995 614.663-665.995-614.663-222.437 205.326 888.432 818.674 888.432-818.674z" />
<glyph unicode="&#xe92a;" glyph-name="library" horiz-adv-x="1158" d="M1139.395 914.258c12.475 0 18.713-7.277 18.713-22.871v-908.605c0-31.188-12.475-45.742-36.386-45.742h-1085.336c-23.911-1.040-36.386 14.554-36.386 44.703v908.605c0 15.594 6.238 22.871 18.713 22.871h53.019c0 31.188 12.475 45.742 36.386 45.742h380.491c24.95 0 45.742-11.436 62.376-34.307 18.713-22.871 28.069-49.901 28.069-81.088 0 31.188 8.317 57.178 24.95 81.088 18.713 23.911 40.544 35.346 64.455 35.346h380.491c22.871 0 34.307-15.594 34.307-45.742h56.138zM539.549-18.258c-9.356 31.188-25.99 45.742-50.94 45.742h-380.491c-24.95 0-36.386 16.634-36.386 48.861v791.131h-35.346v-885.734h503.163zM108.118 914.258v-837.913h380.491c19.752 0 37.425-8.317 53.019-24.95v793.21c0 18.713-5.198 34.307-16.634 48.861-10.396 13.515-22.871 20.792-36.386 20.792h-18.713v-373.214l-71.732 94.603-73.811-94.603v373.214h-216.236zM361.779 914.258v-260.938l36.386 45.742 34.307-45.742v260.938h-70.692zM615.44 51.395c15.594 16.634 33.267 24.95 53.019 24.95h380.491v837.913h-380.491c-15.594 0-28.069-7.277-39.505-20.792-9.356-13.515-13.515-30.148-13.515-48.861v-793.21zM1120.682 867.476h-36.386v-791.131c0-32.227-11.436-48.861-34.307-48.861h-381.531c-24.95 0-41.584-15.594-50.94-45.742h503.163v885.734z" />
<glyph unicode="&#xe92b;" glyph-name="list" horiz-adv-x="1262" d="M83.66 744.715c-23.425 0-42.388 7.808-59.12 22.309-16.732 16.732-24.54 35.695-24.54 59.12v52.427c0 23.425 7.808 42.388 24.54 56.889 16.732 16.732 36.81 24.54 59.12 24.54h126.048c23.425 0 42.388-7.808 56.889-24.54 16.732-14.501 24.54-33.464 24.54-56.889v-52.427c0-23.425-7.808-42.388-24.54-59.12-14.501-14.501-33.464-22.309-56.889-22.309h-126.048zM83.66 338.684c-23.425 0-42.388 7.808-59.12 24.54s-24.54 35.695-24.54 56.889v54.658c0 21.194 7.808 40.157 24.54 56.889 16.732 14.501 36.81 22.309 59.12 22.309h126.048c23.425 0 42.388-7.808 56.889-22.309 16.732-16.732 24.54-35.695 24.54-56.889v-54.658c0-21.194-7.808-40.157-24.54-56.889-14.501-16.732-33.464-24.54-56.889-24.54h-126.048zM83.66-64c-23.425 0-42.388 7.808-59.12 24.54-16.732 14.501-24.54 33.464-24.54 56.889v52.427c0 23.425 7.808 42.388 24.54 56.889 16.732 16.732 36.81 24.54 59.12 24.54h126.048c23.425 0 42.388-7.808 56.889-24.54 16.732-14.501 24.54-33.464 24.54-56.889v-52.427c0-23.425-7.808-42.388-24.54-56.889-14.501-16.732-33.464-24.54-56.889-24.54h-126.048zM532.078 769.255c-23.425 0-42.388 7.808-59.12 22.309-16.732 16.732-24.54 35.695-24.54 56.889 0 23.425 7.808 42.388 24.54 59.12 16.732 14.501 36.81 22.309 59.12 22.309h648.087c21.194 0 40.157-7.808 56.889-22.309 16.732-16.732 24.54-36.81 24.54-59.12 0-21.194-7.808-40.157-24.54-56.889-16.732-14.501-35.695-22.309-56.889-22.309h-648.087zM532.078 366.571c-23.425 0-42.388 7.808-59.12 24.54-16.732 14.501-24.54 33.464-24.54 56.889 0 21.194 7.808 40.157 24.54 56.889s36.81 24.54 59.12 24.54h648.087c21.194 0 40.157-7.808 56.889-24.54s24.54-35.695 24.54-56.889c0-23.425-7.808-42.388-24.54-56.889-16.732-16.732-35.695-24.54-56.889-24.54h-648.087zM532.078-37.229c-23.425 0-42.388 7.808-59.12 22.309-16.732 16.732-24.54 35.695-24.54 56.889 0 23.425 7.808 42.388 24.54 59.12 16.732 14.501 36.81 22.309 59.12 22.309h648.087c21.194 0 40.157-7.808 56.889-22.309 16.732-16.732 24.54-36.81 24.54-59.12 0-21.194-7.808-40.157-24.54-56.889-16.732-14.501-35.695-22.309-56.889-22.309h-648.087z" />
<glyph unicode="&#xe92c;" glyph-name="location" horiz-adv-x="746" d="M373.709 960c102.678 0 190.555-36.076 264.556-109.153 72.152-74.002 109.153-161.879 109.153-264.556 0-85.102-58.276-216.455-174.829-395.91-35.151-54.576-74.927-111.003-116.553-168.354-13.875-19.425-26.826-37.001-38.851-53.651-3.7-3.7-7.4-9.25-10.175-14.8-0.925-0.925-2.775-2.775-3.7-3.7-6.475-9.25-16.65-14.8-28.676-14.8s-22.201 4.625-28.676 14.8c-0.925 0.925-2.775 2.775-3.7 3.7-2.775 5.55-6.475 10.175-10.175 14.8-12.025 16.65-24.976 34.226-38.851 53.651-42.551 57.351-81.402 113.778-116.553 168.354-118.403 179.454-176.679 311.733-176.679 395.91 0 102.678 36.076 190.555 109.153 264.556 74.002 72.152 111.003 109.153 111.003 109.153s50.876 0 153.554 0zM375.559 412.387c46.251 0 86.952 16.65 121.178 50.876 32.376 32.376 49.026 72.152 49.026 119.328 0 48.101-16.65 87.877-49.026 121.178-34.226 32.376-74.927 49.026-121.178 49.026-48.101 0-87.877-16.65-121.178-49.026-32.376-32.376-49.026-73.077-49.026-121.178 0-46.251 16.65-86.027 49.026-119.328 33.301-34.226 73.077-50.876 121.178-50.876z" />
<glyph unicode="&#xe92d;" glyph-name="logo-ufmg" horiz-adv-x="1198" d="M148.17 592.291c18.618-1.552 20.945-9.309 20.945-44.994v-49.648c0-41.891 0-87.661-58.958-87.661-32.582 0-56.63 15.515-56.63 54.303v114.036c0 10.085 7.758 13.188 16.291 13.964v10.085h-69.818v-10.085c9.309-0.776 17.842-3.879 17.842-14.739v-115.588c0-48.873 32.582-69.042 86.109-69.042 61.285 0 84.558 37.236 84.558 85.333v85.333c0 22.497 7.758 27.927 18.618 29.479v10.085h-58.958c0 0 0-10.861 0-10.861zM374.691 603.152c-23.273 0-47.321 0-70.594 0.776v-10.861c13.188-1.552 20.17-5.43 20.17-17.842v-152.048c0-12.412-6.982-17.067-20.17-17.842v-10.085h82.23v10.085c-17.842 0.776-25.6 6.206-25.6 27.152v66.715h39.564c18.618 0 26.376-1.552 28.703-13.188h8.533v40.339h-8.533c-3.103-13.964-12.412-13.964-29.479-13.964h-39.564v77.576h44.994c31.030 0 41.891-2.327 48.097-20.17h10.861l-1.552 33.358c-23.273 0-48.097 0-87.661 0zM1132.606 481.358v-10.085c15.515-2.327 17.067-10.085 17.067-28.703 0-5.43-0.776-28.703-0.776-32.582-9.309-3.879-19.394-6.982-29.479-6.982-66.715 0-88.436 55.079-88.436 93.867 0 67.491 38.788 94.642 84.558 94.642 36.461 0 49.648-17.067 59.733-36.461h13.964l-2.327 38.788c-6.206 1.552-33.358 6.206-38.788 6.982-20.17 2.327-28.703 3.879-39.564 3.879-65.939 0-117.915-42.667-117.915-109.382 0-58.958 47.321-106.279 114.812-106.279 30.255 0 58.182 6.206 79.127 12.412v52.752c0 11.636 3.103 15.515 14.739 16.291v10.085l-66.715 0.776zM898.327 455.758c-6.982-6.982-31.030-28.703-39.564-28.703-3.103 0-6.982 1.552-6.982 5.43 0 4.655 3.879 13.964 6.206 20.945l36.461 106.279c2.327 6.206 4.655 14.739 4.655 22.497 0 10.085-3.879 18.618-17.842 18.618-43.442 0-111.709-76.024-135.758-107.055h-0.776l21.721 67.491c3.103 8.533 4.655 17.067 4.655 24.824 0 8.533-6.206 14.739-20.17 14.739-40.339 0-107.83-75.248-129.552-106.279h-0.776l23.273 69.042c1.552 5.43 5.43 13.964 5.43 21.721 0 8.533-4.655 15.515-15.515 15.515-30.255 0-62.061-36.461-79.127-57.406 0 0-4.655-5.43-0.776-8.533s7.758 0 7.758 0l12.412 13.964c8.533 8.533 17.067 16.291 26.376 16.291 5.43 0 6.982-3.879 6.982-9.309 0-3.879-1.552-8.533-1.552-11.636l-47.321-142.739c-0.776-5.43 8.533-7.758 13.188-7.758 11.636 0 17.067 3.103 17.842 6.982l8.533 24.048c12.412 34.909 31.806 65.939 56.63 93.091 14.739 15.515 41.891 48.097 66.715 48.097 6.206 0 8.533-4.655 8.533-11.636 0-11.636-6.206-29.479-7.758-33.358l-39.564-118.691c-0.776-3.879 3.103-9.309 15.515-9.309 11.636 0 14.739 3.879 16.291 7.758l7.758 18.618c12.412 32.582 25.6 56.63 46.545 83.006 14.739 17.842 55.855 63.612 79.903 63.612 4.655 0 10.085-3.879 10.085-10.861 0-4.655-3.103-12.412-4.655-18.618l-36.461-105.503c-3.103-9.309-5.43-16.291-5.43-21.721 0-11.636 8.533-15.515 17.067-15.515 24.824 0 46.545 20.17 64.388 40.339l13.964 15.515c0 0 3.879 3.879 0 7.758-6.206 1.552-9.309-1.552-9.309-1.552zM560.097 333.964h314.182v-76.024h-314.182v76.024z" />
<glyph unicode="&#xe92e;" glyph-name="m" horiz-adv-x="1742" d="M1703.489 247.83c9.532 12.255 20.426 13.617 29.957 2.723 8.17-5.447 9.532-13.617 5.447-24.511 0-4.085-1.362-8.17-5.447-12.255l-69.447-74.894c-54.468-59.915-102.128-104.851-144.34-133.447-58.553-42.213-114.383-64-168.851-64s-81.702 24.511-81.702 74.894c0 20.426 9.532 55.83 27.234 106.213l178.383 516.085c16.34 46.298 24.511 77.617 24.511 93.957s-5.447 28.596-14.979 39.489c-9.532 8.17-21.787 12.255-36.766 12.255-50.383 0-121.191-40.851-211.064-123.915-59.915-54.468-119.83-117.106-178.383-187.915-92.596-114.383-168.851-250.553-230.128-407.149l-36.766-91.234c-8.17-25.872-34.043-39.489-78.979-39.489-28.596 0-47.66 5.447-59.915 14.979-12.255 8.17-17.702 17.702-14.979 29.957l196.085 580.085c24.511 84.426 36.766 140.255 36.766 166.128 0 36.766-13.617 54.468-42.213 54.468-51.745 0-113.021-28.596-181.106-87.149-29.957-25.872-78.979-74.894-144.34-144.34-125.277-134.809-217.872-287.319-277.787-456.17l-39.489-114.383c-9.532-24.511-40.851-36.766-91.234-36.766-13.617 0-28.596 2.723-42.213 9.532-16.34 8.17-23.149 17.702-21.787 29.957l232.851 701.277c5.447 36.766 9.532 55.83 9.532 57.191 0 28.596-12.255 42.213-36.766 42.213-34.043 0-77.617-25.872-129.362-74.894l-59.915-69.447c-12.255-9.532-25.872-9.532-39.489 0-10.894 9.532-8.17 23.149 5.447 42.213 152.511 186.553 281.872 280.511 386.723 280.511 25.872 0 46.298-6.809 59.915-21.787 9.532-13.617 14.979-32.681 14.979-54.468s-8.17-58.553-24.511-108.936l-114.383-334.979h2.723c74.894 106.213 168.851 212.426 284.596 317.277 147.064 134.809 265.532 202.894 354.043 202.894 32.681 0 57.191-5.447 74.894-17.702 16.34-13.617 24.511-32.681 24.511-54.468 0-32.681-8.17-72.17-24.511-121.191l-106.213-332.255h2.723c93.957 118.468 194.723 226.043 299.574 320 153.872 137.532 276.426 205.617 369.021 205.617 58.553 0 87.149-29.957 87.149-91.234 0-29.957-6.809-66.723-21.787-108.936l-177.021-521.532c-21.787-66.723-32.681-100.766-32.681-102.128 0-9.532 4.085-17.702 12.255-21.787s16.34-5.447 24.511-5.447c17.702 0 51.745 19.064 99.404 57.191 39.489 29.957 70.809 57.191 95.319 81.702z" />
<glyph unicode="&#xe92f;" glyph-name="medium" horiz-adv-x="1206" d="M397.083 769.012c3.237-1.079 4.316-4.316 4.316-7.553v-801.72c0-16.185-6.474-23.739-19.423-23.739-4.316 0-9.711 1.079-14.027 2.158l-346.369 172.645c-14.027 6.474-21.581 18.344-21.581 35.608v794.166c0 5.395 1.079 8.632 4.316 9.711 1.079 3.237 4.316 4.316 9.711 4.316 1.079 0 4.316-1.079 7.553-2.158l23.739-9.711 351.764-173.724zM438.086 708.586l365.791-589.151-365.791 182.356v406.795zM1196.645 771.17c6.474-3.237 7.553-7.553 4.316-14.027l-375.503-604.257-263.283 424.059 235.229 375.503c3.237 5.395 6.474 7.553 11.869 7.553 1.079 0 3.237 0 4.316 0l383.056-188.83zM1206.356 698.875v-739.136c0-9.711-3.237-17.264-9.711-21.581-6.474-3.237-14.027-2.158-23.739 2.158l-337.737 165.092 371.187 593.467z" />
<glyph unicode="&#xe930;" glyph-name="megaphone" horiz-adv-x="1208" d="M1047.394 960c10.633 0 20.204-4.253 28.71-11.697 6.38-7.443 9.57-17.013 9.57-28.71v-757.101c0-9.57-3.19-18.077-9.57-25.52-7.443-6.38-17.013-9.57-28.71-9.57l-514.658 219.049h-61.674c-36.154 1.063-62.737-7.443-79.751-25.52-15.95-17.013-19.14-36.154-9.57-56.357s22.33-68.054 40.407-141.425c17.013-79.751 24.457-130.791 21.267-153.121-3.19-15.95-7.443-25.52-13.823-30.837-3.19-1.063-6.38-2.127-9.57-2.127h-156.312c-7.443 0-12.76 5.317-13.823 17.013-1.063 9.57-1.063 17.013 2.127 23.394 3.19 3.19 5.317 20.204 7.443 52.104 1.063 37.217 1.063 74.434 0 110.588-6.38 107.398-24.457 170.135-54.231 188.212-19.14 12.76-28.71 19.14-30.837 19.14-49.977 0-92.511 17.013-125.475 52.104-31.9 31.9-48.914 73.371-48.914 124.411v19.14c0 48.914 17.013 91.448 49.977 127.601 35.090 35.090 76.561 52.104 125.475 52.104h354.093l517.848 237.126zM1109.067 421.948c26.584 0 49.977 11.697 71.244 35.090 19.14 23.394 28.71 53.167 28.71 87.194 0 32.964-9.57 61.674-28.71 85.067-20.204 23.394-43.597 35.090-71.244 35.090v-242.442z" />
<glyph unicode="&#xe931;" glyph-name="menu" horiz-adv-x="1113" d="M0 960h1113.219v-218.73h-1113.219v218.73zM0 557.077h1113.219v-218.73h-1113.219v218.73zM0 154.73h1113.219v-218.73h-1113.219v218.73z" />
<glyph unicode="&#xe932;" glyph-name="mic" d="M613.107 447.538l-509.692-509.692c-8.31-6.463-28.624 6.463-61.865 38.781-34.164 34.164-47.091 54.478-38.781 61.865l509.692 512.462 100.646-103.416zM914.121 591.582l-203.138-203.138-260.386 260.386 204.985 203.138 258.539-260.386zM719.293 822.42l168.050-166.204c35.087 2.77 66.482 16.62 92.335 43.398 30.471 30.471 45.244 66.482 45.244 108.956 0 40.628-14.774 76.638-45.244 106.186-30.471 30.471-66.482 45.244-108.956 45.244s-77.562-14.774-106.186-45.244c-25.854-24.007-41.551-55.401-45.244-92.335z" />
<glyph unicode="&#xe933;" glyph-name="minus" horiz-adv-x="4437" d="M0-64v1024h4437.333v-1024h-4437.333z" />
<glyph unicode="&#xe934;" glyph-name="mortarboard" horiz-adv-x="1099" d="M1070.277 499.2l-535.631-243.2-534.646 243.2 534.646 244.185 535.631-244.185zM808.369 343.631v-111.262c0-27.569-26.585-54.154-80.738-80.738-57.108-29.538-121.108-43.323-192-43.323s-135.877 14.769-192 43.323c-54.154 26.585-80.738 53.169-80.738 80.738v111.262l271.754-124.062 273.723 124.062zM1098.831 138.831h-120.123l39.385 163.446 1.969 6.892c-11.815 6.892-17.723 17.723-17.723 32.492 0 20.677 11.815 33.477 34.462 39.385v118.154h10.831v-118.154c21.662-2.954 32.492-15.754 32.492-39.385 0-15.754-6.892-28.554-19.692-37.415v-1.969l38.4-163.446z" />
<glyph unicode="&#xe935;" glyph-name="mute" horiz-adv-x="638" d="M78.507 250.027c-44.373 0-78.507 34.133-78.507 78.507 0 0 0 0 0 0v235.52c0 44.373 34.133 78.507 78.507 78.507 0 0 0 0 0 0h160.427l399.36 317.44v-1024l-399.36 314.027h-160.427z" />
<glyph unicode="&#xe936;" glyph-name="news" horiz-adv-x="896" d="M0 960h895.81v-1024h-895.81v1024zM90.264 23.988h716.041v845.748h-716.041v-845.748zM223.763 692.243h448.284v-87.988h-448.284v87.988zM223.763 491.994h448.284v-87.988h-448.284v87.988zM223.763 291.745h448.284v-90.264h-448.284v90.264z" />
<glyph unicode="&#xe937;" glyph-name="note" horiz-adv-x="921" d="M478.12 194.855h-430.156c-13.704 0-25.124 4.568-34.26 13.704-9.136 9.897-13.704 20.556-13.704 32.738v670.739c0 13.704 4.568 25.124 13.704 34.26 9.897 9.136 21.317 13.704 34.26 13.704h574.049c13.704 0 25.124-4.568 34.26-13.704s13.704-20.556 13.704-34.26v-526.085l-191.857-191.096zM431.679 385.951c0 13.704 4.568 25.124 13.704 34.26s19.795 13.704 31.976 13.704h144.654v478.12h-574.049v-670.739h383.714v144.654zM120.291 769.665c-15.988 0-24.363 8.375-24.363 24.363s8.375 24.363 24.363 24.363h429.395c15.988 0 24.363-8.375 24.363-24.363s-7.613-24.363-24.363-24.363h-429.395zM120.291 625.011c-15.988 0-24.363 8.375-24.363 24.363s8.375 24.363 24.363 24.363h429.395c15.988 0 24.363-8.375 24.363-24.363s-7.613-24.363-24.363-24.363h-429.395zM574.049 506.242c0-15.988-8.375-24.363-24.363-24.363h-429.395c-15.988 0-24.363 8.375-24.363 24.363 0 14.465 8.375 22.079 24.363 22.079h429.395c16.749 0 24.363-7.613 24.363-22.079zM748.396 369.963l92.122-92.122-311.387-311.387-122.575-30.454 30.454 124.098 311.387 309.865zM602.219 385.951h-124.098v-124.098l124.098 124.098zM903.709 432.393c12.181-12.181 18.272-27.408 18.272-46.442s-6.091-34.26-18.272-46.442l-31.976-31.976-92.122 94.406 31.976 30.454c12.181 13.704 27.408 19.795 46.442 19.795 16.749 0 31.976-6.852 45.68-19.795z" />
<glyph unicode="&#xe938;" glyph-name="numeros" horiz-adv-x="1079" d="M906.034 772.306c-86.923 114.547-223.152 187.764-376.481 187.764-17.737 0-35.245-0.98-52.473-2.888l2.122 0.191 49.922-469.634zM422.448 877.931c-111.806-12.003-210.23-61.564-284.105-135.624l-0.009-0.009c-184.45-184.45-184.45-483.569 0.018-667.983s483.514-184.432 667.983 0c79.641 79.457 130.942 187.288 137.448 307.037l0.052 1.196-471.5 25.768zM983.41 757.393l-376.91-284.495 471.5-25.84c0.46 7.797 0.723 16.916 0.723 26.096 0 107.268-35.822 206.169-96.156 285.394l0.843-1.155z" />
<glyph unicode="&#xe939;" glyph-name="pause" horiz-adv-x="759" d="M0 960h265.481v-1024h-265.481v1024zM493.037 960h265.481v-1024h-265.481v1024z" />
<glyph unicode="&#xe93a;" glyph-name="pdf" horiz-adv-x="934" d="M328.275 443.278h-82.637v-306.063h54.829v109.046h23.086q48.096 0 74.155 26.234t26.234 75.466q0 47.484-24.485 71.444t-71.182 23.873zM356.432 311.233c-9.123-7.451-20.898-11.965-33.727-11.965-1.456 0-2.898 0.058-4.325 0.172l0.188-0.012h-18.101v90.682h24.922c1.23 0.123 2.658 0.193 4.103 0.193 11.166 0 21.355-4.186 29.083-11.074l-0.043 0.038c6.682-8.042 10.736-18.474 10.736-29.853 0-1.342-0.056-2.672-0.167-3.986l0.012 0.172c0.063-0.889 0.098-1.927 0.098-2.973 0-12.262-4.91-23.378-12.872-31.488l0.007 0.007zM581.957 388.012c0.124-16.552 1.55-32.675 4.181-48.39l-0.246 1.78h-1.749c-10.449 20.499-31.4 34.294-55.573 34.294-0.476 0-0.952-0.005-1.425-0.016l0.071 0.001c-0.286 0.005-0.624 0.007-0.963 0.007-23.418 0-43.846-12.803-54.666-31.791l-0.162-0.31q-20.2-32.093-20.2-89.633t19.938-88.671c10.58-19.212 30.695-32.013 53.799-32.013 0.331 0 0.662 0.003 0.992 0.008l-0.050-0.001c0.545-0.018 1.185-0.028 1.828-0.028 23.871 0 44.476 13.984 54.070 34.207l0.155 0.363h2.274l10.406-30.344h41.362v325.476h-54.042zM585.892 246.698q-0.874-34.104-10.581-48.271c-6.24-8.73-16.342-14.352-27.757-14.352-0.91 0-1.813 0.036-2.705 0.106l0.118-0.007c-0.137-0.002-0.298-0.003-0.459-0.003-12.32 0-22.996 7.038-28.228 17.313l-0.083 0.18c-6.474 13.236-10.259 28.802-10.259 45.253 0 2.292 0.074 4.568 0.218 6.824l-0.016-0.308c-0.107 1.821-0.167 3.951-0.167 6.095 0 16.819 3.736 32.765 10.423 47.054l-0.287-0.682c4.972 10.756 15.663 18.087 28.068 18.101h0.002c0.777 0.062 1.682 0.098 2.596 0.098 12.332 0 23.15-6.479 29.238-16.218l0.084-0.145q9.794-16.527 9.794-54.217zM695.638 137.477h53.955v185.912h46.696v47.921h-46.696v14.604c-0.017 0.424-0.027 0.923-0.027 1.423 0 7.050 1.927 13.65 5.282 19.302l-0.096-0.175c3.308 4.915 8.85 8.105 15.138 8.105 0.52 0 1.035-0.022 1.544-0.065l-0.066 0.004c10.881-0.22 21.188-2.416 30.662-6.241l-0.58 0.207 13.817 46.871c-13.975 6.204-30.277 9.817-47.423 9.817-0.821 0-1.64-0.008-2.457-0.025l0.122 0.002q-36.64 0-53.255-18.451t-16.615-58.327v-17.489l-29.732-17.489v-29.994h29.732zM211.358 764.644c2.473 2.994 3.973 6.871 3.973 11.098 0 0.403-0.014 0.802-0.040 1.198l0.003-0.054q0 13.204-12.33 13.204h-7.695v-29.994h5.422c0.158-0.007 0.344-0.010 0.531-0.010 4.027 0 7.644 1.756 10.126 4.544l0.012 0.014zM687.68 960h-497.047c-0.005 0-0.011 0-0.016 0-37.148 0-67.36-29.696-68.191-66.644l-0.001-0.077v-23.96h-122.425v-229.547h122.425v-637.049c0-38.477 39.701-66.722 75.729-66.722h667.568c0.209-0.002 0.455-0.004 0.702-0.004 36.974 0 66.987 29.801 67.331 66.693v716.571zM682.521 917.676l195.88-192.383h-195.793zM900.176 2.722c-0.438-17.819-14.987-32.097-32.871-32.097-0.188 0-0.375 0.002-0.562 0.005h-667.19c-19.238 0-41.1 16.702-41.1 32.093h1.312v637.049h438.545v229.547h-438.457v23.96c0.628 17.665 15.1 31.746 32.86 31.746 0.161 0 0.321-0.001 0.481-0.003h456.010v-234.357h251.059zM165.624 688.216v130.295h38.127c0.952 0.077 2.062 0.121 3.181 0.121 10.847 0 20.729-4.132 28.158-10.907l-0.033 0.030c6.571-7.399 10.584-17.197 10.584-27.932 0-0.972-0.033-1.936-0.098-2.891l0.007 0.129c0.064-0.928 0.1-2.012 0.1-3.105 0-11.684-4.166-22.395-11.095-30.728l0.063 0.078c-7.23-7.39-17.305-11.972-28.449-11.972-0.882 0-1.757 0.029-2.625 0.085l0.118-0.006h-8.745v-43.199zM263.127 688.216v130.295h38.127c0.929 0.059 2.015 0.092 3.108 0.092 14.804 0 28.176-6.131 37.716-15.993l0.014-0.015c9.090-11.335 14.588-25.891 14.588-41.731 0-1.624-0.058-3.235-0.171-4.83l0.012 0.214c0.090-1.377 0.142-2.984 0.142-4.604 0-17.313-5.877-33.253-15.746-45.933l0.126 0.168c-9.8-10.815-23.899-17.579-39.578-17.579-1.089 0-2.171 0.033-3.244 0.097l0.148-0.007zM438.72 765.344v-28.245h-33.142v-48.883h-29.557v130.295h65.148v-28.245h-35.853v-24.835zM301.429 790.091h-8.745v-73.018h6.646c0.511-0.042 1.106-0.065 1.707-0.065 7.451 0 14.049 3.655 18.098 9.269l0.045 0.066c4.095 7.176 6.51 15.77 6.51 24.927 0 1.26-0.046 2.509-0.136 3.746l0.010-0.166c0.063 0.913 0.1 1.979 0.1 3.053 0 8.525-2.276 16.519-6.254 23.407l0.121-0.226c-3.765 5.483-10.001 9.033-17.066 9.033-0.364 0-0.726-0.009-1.086-0.028l0.050 0.002z" />
<glyph unicode="&#xe93b;" glyph-name="pencil" horiz-adv-x="1008" d="M0-64v217.522c37.484-26.693 73.265-56.794 107.909-89.735 38.62-38.62 76.672-81.216 113.588-127.787h-221.498zM291.354-14.021c-63.61 98.822-155.616 178.902-275.452 241.943l561.127 519.099c42.596-34.644 82.92-72.129 121.54-111.885 39.756-39.756 78.376-81.784 115.86-125.515l-523.075-523.643zM638.935 802.68c43.732 74.4 89.167 122.676 135.738 143.689 22.718 11.927 40.324 15.902 53.955 11.927 69.289-27.829 127.219-84.055 173.79-167.543 14.767-35.78-2.272-81.784-49.979-138.010-23.854-27.829-49.411-51.683-76.104-72.129-22.718 55.090-101.662 128.923-237.4 222.065z" />
<glyph unicode="&#xe93c;" glyph-name="pencil2" d="M49.249 910.751c31.593 32.523 70.621 49.249 115.223 49.249 46.461 0 85.488-16.726 117.082-49.249l-232.305-233.234c-32.523 31.593-49.249 70.621-49.249 118.011 0 44.603 16.726 83.63 49.249 115.223zM113.365 611.543l235.093 235.093 509.212-511.071 167.26-399.564-399.564 167.26-512 508.283zM678.33 205.474c-5.575-5.575-10.221-12.080-14.868-18.584-2.788-6.505-5.575-13.938-8.363-20.443l-3.717-10.221-1.858-8.363v-5.575h-1.858l230.446-94.78 35.31 35.31-94.78 227.659c-28.806-3.717-50.178-13.938-64.116-28.806-9.292-9.292-14.868-22.301-14.868-39.027 0-14.868 2.788-25.089 8.363-30.664-5.575 5.575-15.797 8.363-30.664 8.363-16.726 0-29.735-5.575-39.027-14.868z" />
<glyph unicode="&#xe93d;" glyph-name="phone-2" horiz-adv-x="394" d="M173.972 448c0-36.056 1.803-73.014 6.31-111.775 0.901-13.521 2.704-27.042 3.606-39.662l1.803-16.225v-9.915c5.408-27.042 17.127-42.366 36.056-47.775 13.521-2.704 24.338-4.507 34.254-6.31l29.746-280.338c-29.746 0-62.197 5.408-98.254 16.225-44.169 13.521-75.718 27.944-93.746 44.169-24.338 54.986-45.070 119.887-62.197 195.606-20.732 91.042-31.549 175.775-31.549 256s10.817 164.958 31.549 256c18.028 75.718 38.761 141.521 62.197 195.606 18.93 16.225 49.577 30.648 93.746 44.169 36.056 10.817 68.507 16.225 98.254 16.225l-29.746-280.338c-9.014-0.901-20.732-3.606-34.254-6.31-18.93-5.408-30.648-21.634-36.056-47.775v-9.915l-1.803-16.225c-0.901-13.521-2.704-27.042-3.606-39.662-4.507-38.761-6.31-75.718-6.31-111.775zM369.577 953.69c16.225-5.408 24.338-15.324 24.338-29.746l-21.634-218.141c-0.901-5.408-3.606-10.817-8.113-16.225-3.606-6.31-9.915-9.014-18.028-8.113h-47.775l27.944 275.831 43.268-3.606zM393.915-27.944c0-14.423-8.113-24.338-24.338-29.746l-44.169-3.606-27.944 275.831h47.775c8.113 0.901 14.423-0.901 18.028-8.113 3.606-3.606 6.31-9.014 8.113-16.225l22.535-218.141z" />
<glyph unicode="&#xe93e;" glyph-name="phone" horiz-adv-x="1035" d="M125.527 931.091c10.651 10.651 23.584 19.019 38.039 24.345 13.694 3.804 25.866 5.325 38.039 3.804 14.455-3.043 28.149-9.89 40.321-22.062 37.278-35.756 74.556-72.273 110.312-108.030 9.129-9.129 15.976-20.541 19.78-34.235 3.804-12.172 4.565-24.345 2.282-35.756-3.043-13.694-9.89-26.627-22.062-40.321l-54.015-54.015c-9.129-9.129-16.737-20.541-22.062-34.235-9.129-26.627-2.282-51.733 22.062-74.556 35.756-35.756 146.068-145.308 328.654-327.132 9.129-9.129 20.541-15.976 34.235-19.78 12.172-3.804 23.584-5.325 34.235-3.804 14.455 3.804 28.909 12.172 41.842 24.345l54.015 54.015c9.129 9.129 20.541 15.976 34.235 19.78 12.172 3.804 24.345 4.565 35.756 2.282 13.694-3.043 26.627-9.89 40.321-22.062 35.756-35.756 72.273-72.273 108.030-108.030 9.129-9.129 16.737-20.541 22.062-34.235 9.129-28.149 2.282-53.254-22.062-76.077-35.756-35.756-72.273-72.273-108.030-108.030-38.799-38.799-120.963-22.062-246.49 50.211-113.355 63.905-222.906 148.351-327.132 252.577-116.398 114.116-205.409 225.949-267.031 333.979-65.426 116.398-78.36 194.758-38.039 235.079l102.704 101.944z" />
<glyph unicode="&#xe93f;" glyph-name="photography" horiz-adv-x="1384" d="M1313.754 770.37c19.721 0 36.409-7.585 50.062-21.997 13.653-13.653 19.721-29.582 19.721-47.787v-694.044c0-18.963-6.827-35.65-19.721-50.062-13.653-13.653-30.341-19.721-50.062-19.721h-1243.97c-19.721 0-36.409 6.827-50.062 19.721-13.653 14.412-19.721 31.099-19.721 50.062v693.286c0 18.963 6.827 34.892 19.721 47.787 13.653 15.17 30.341 22.756 50.062 22.756h250.311c47.028 1.517 79.644 22.756 97.849 63.716l24.273 62.199c18.204 42.477 50.821 63.716 97.849 63.716h304.166c47.028 0 78.886-21.239 96.332-63.716l25.79-62.199c18.963-42.477 50.821-63.716 96.332-63.716h251.070zM691.769 99.84c77.369 0 143.36 27.307 197.973 81.92s81.92 120.604 81.92 197.973c0 77.369-27.307 143.36-81.92 197.973s-120.604 81.92-197.973 81.92c-77.369 0-143.36-27.307-197.973-81.92s-81.92-120.604-81.92-197.973c0-77.369 27.307-143.36 81.92-197.973s120.604-81.92 197.973-81.92z" />
<glyph unicode="&#xe940;" glyph-name="photoshop" horiz-adv-x="934" d="M393.51 544.978h-104.936v-422.367h69.17v147.61l34.979-0.962c106.772 0 148.659 64.448 148.659 137.029 0.787 75.117-34.804 138.69-147.872 138.69zM399.019 332.133h-41.012v152.157h40.75c63.399 0 75.466-43.723 75.466-76.778 0-37.689-19.063-75.379-75.641-75.379zM583.706 350.41c-0.014-0.602-0.022-1.312-0.022-2.024 0-13.721 2.904-26.763 8.132-38.546l-0.24 0.607c5.237-11.623 12.147-21.556 20.553-29.998l-0.003 0.003c11.409-10.348 24.378-19.295 38.441-26.39l0.997-0.456c14.503-7.427 26.663-14.744 38.293-22.773l-1.128 0.736c5.453-3.952 10.040-8.706 13.691-14.142l0.126-0.199c2.982-5.041 4.744-11.11 4.744-17.59 0-9.879-4.095-18.801-10.681-25.162l-0.010-0.010c-7.691-5.528-17.297-8.84-27.677-8.84-1.061 0-2.115 0.035-3.159 0.103l0.142-0.007c-13.198 0.255-25.796 2.443-37.644 6.291l0.917-0.258c-19.093 6.209-35.346 13.197-50.82 21.453l1.675-0.816v-64.011c22.582-12.353 49.472-19.619 78.059-19.619 1.118 0 2.233 0.011 3.346 0.033l-0.167-0.003q49.845 0 77.74 25.36c17.313 16.238 28.1 39.258 28.1 64.796 0 1.6-0.042 3.19-0.126 4.77l0.009-0.221c0.034 0.935 0.053 2.034 0.053 3.137 0 18.83-5.599 36.353-15.223 50.994l0.217-0.351q-14.866 21.862-55.091 43.723c-15.058 7.662-27.677 15.213-39.748 23.504l1.184-0.768c-4.561 3.554-8.332 7.883-11.168 12.817l-0.113 0.213c-2.374 4.383-3.77 9.596-3.77 15.135 0 0.274 0.003 0.548 0.010 0.821l-0.001-0.040c-0.019 0.415-0.030 0.901-0.030 1.389 0 8.735 3.518 16.647 9.215 22.399l-0.002-0.003c6.29 5.49 14.573 8.838 23.638 8.838 0.914 0 1.819-0.034 2.716-0.101l-0.12 0.007c0.533 0.011 1.161 0.017 1.791 0.017 9.912 0 19.463-1.541 28.428-4.397l-0.663 0.182c20.359-6.674 37.772-17.543 51.948-31.66l-0.004 0.004v69.957c-10.448 6.106-22.625 11.799-35.331 16.382l-1.571 0.495c-12.619 3.83-27.122 6.035-42.14 6.035-0.188 0-0.375 0-0.563-0.001h0.029q-45.472 0-71.269-24.66c-15.957-16.123-25.816-38.308-25.816-62.796 0-1.534 0.039-3.060 0.115-4.575l-0.009 0.213zM192.383 767.617c2.855 3.501 4.584 8.017 4.584 12.938 0 0.432-0.013 0.861-0.040 1.287l0.003-0.058q0 15.216-14.254 15.216h-8.745v-34.979h6.296c0.059-0.001 0.129-0.001 0.2-0.001 4.793 0 9.080 2.166 11.936 5.574l0.020 0.024zM687.68 960h-497.047c-0.005 0-0.011 0-0.016 0-37.148 0-67.36-29.696-68.191-66.644l-0.001-0.077v-23.96h-122.425v-229.547h122.425v-637.049c0-38.477 39.788-66.722 75.729-66.722h667.568c0.209-0.002 0.455-0.004 0.702-0.004 36.974 0 66.987 29.801 67.331 66.693v716.571zM682.608 917.676l195.88-192.383h-195.88zM139.128 679.296v150.321h43.723c1.115 0.092 2.413 0.144 3.724 0.144 12.526 0 23.938-4.771 32.517-12.595l-0.038 0.034c7.543-8.536 12.148-19.822 12.148-32.184 0-0.983-0.029-1.959-0.087-2.928l0.006 0.133c0.093-1.208 0.147-2.615 0.147-4.035 0-13.453-4.777-25.791-12.727-35.409l0.075 0.094c-8.356-8.528-19.993-13.815-32.864-13.815-0.99 0-1.973 0.031-2.947 0.093l0.133-0.007h-9.619v-49.845zM899.913 2.722c-0.438-17.819-14.987-32.097-32.871-32.097-0.188 0-0.375 0.002-0.562 0.005h-666.84c-19.238 0-41.012 16.702-41.012 32.093h1.312v637.049h438.37v229.547h-438.457v23.96c0.628 17.665 15.1 31.746 32.86 31.746 0.161 0 0.321-0.001 0.481-0.003h456.010v-234.357h251.496zM298.98 726.867c-1.253 1.871-2.794 3.44-4.578 4.685l-0.057 0.038c-4.665 3.124-10.187 6.377-15.889 9.329l-0.988 0.465c-7.12 3.62-13.248 7.932-18.675 12.987l0.048-0.045c-3.998 3.972-7.153 8.786-9.179 14.155l-0.090 0.273c-1.893 5.37-2.987 11.562-2.987 18.010 0 0.432 0.005 0.863 0.015 1.293l-0.001-0.064c-0.033 0.622-0.052 1.35-0.052 2.082 0 11.792 4.913 22.436 12.805 29.996l0.015 0.014c8.664 7.281 19.94 11.705 32.25 11.705 0.96 0 1.914-0.027 2.86-0.080l-0.131 0.006c14.832-0.254 28.685-4.21 40.748-10.98l-0.435 0.224-10.494-31.393c-8.793 5.441-19.308 8.953-30.579 9.696l-0.202 0.011c-0.356 0.032-0.769 0.050-1.187 0.050-3.214 0-6.178-1.070-8.555-2.874l0.035 0.026c-1.881-1.614-3.064-3.993-3.064-6.649 0-0.091 0.001-0.182 0.004-0.273v0.013c0.052-3.204 1.532-6.053 3.83-7.943l0.018-0.014c6.073-4.52 12.948-8.765 20.182-12.401l0.805-0.367c9.303-4.365 17.031-10.72 22.886-18.556l0.112-0.157c4.032-6.732 6.416-14.852 6.416-23.528 0-0.613-0.012-1.224-0.036-1.831l0.003 0.087c0.005-0.272 0.008-0.593 0.008-0.915 0-8.763-2.238-17.004-6.174-24.182l0.132 0.262c-4.084-7.259-10.056-13.034-17.258-16.768l-0.232-0.109c-7.347-3.809-16.039-6.042-25.253-6.042-0.345 0-0.689 0.003-1.032 0.009l0.052-0.001c-0.549-0.012-1.197-0.019-1.845-0.019-6.907 0-13.634 0.771-20.099 2.233l0.607-0.115c-6.646 1.819-12.458 4.328-17.813 7.525l0.324-0.179v36.378c5.876-3.625 12.649-6.768 19.795-9.082l0.668-0.187c5.801-1.995 12.49-3.202 19.443-3.322l0.058-0.001c0.406-0.035 0.88-0.055 1.357-0.055 3.698 0 7.115 1.202 9.882 3.236l-0.046-0.033c2.202 1.888 3.589 4.673 3.589 7.782 0 0.093-0.001 0.185-0.004 0.277v-0.014c-0.153 2.027-0.885 3.859-2.029 5.359l0.018-0.024zM354.421 679.296v150.321h43.723c1.332 0.105 2.884 0.165 4.45 0.165 17.029 0 32.408-7.065 43.366-18.423l0.017-0.018c10.52-13.092 16.884-29.913 16.884-48.221 0-1.864-0.066-3.712-0.196-5.542l0.014 0.246q0-37.602-17.489-57.977c-11.261-12.593-27.557-20.482-45.695-20.482-1.275 0-2.541 0.039-3.797 0.116l0.172-0.008zM398.844 796.825h-10.056v-84.211h7.695c0.682-0.064 1.475-0.101 2.276-0.101 8.631 0 16.269 4.254 20.932 10.779l0.053 0.078c4.713 8.274 7.492 18.18 7.492 28.734 0 1.459-0.053 2.905-0.157 4.337l0.011-0.192c0.059 0.949 0.093 2.057 0.093 3.174 0 10.111-2.763 19.577-7.576 27.683l0.138-0.251c-4.382 6.093-11.452 10.014-19.438 10.014-0.514 0-1.025-0.016-1.531-0.048l0.069 0.004z" />
<glyph unicode="&#xe941;" glyph-name="pictures" horiz-adv-x="1210" d="M1006.826 686.289h202.868v-750.289h-973.551v68.696l-95.53-17.174-140.612 802.885 959.597 169.593 47.229-273.711zM205.015 78.759l31.128 7.514v600.017h690.18l-31.128 183.547-805.031-142.759 114.851-648.319zM314.499 14.356h816.839v593.577h-816.839v-593.577zM1078.742 553.191v-316.646l-162.080 185.694-33.275 11.807-247.95-273.711-101.971 64.403-166.373-109.484v437.937h711.648zM525.954 364.277c19.321 0 35.421 7.514 50.449 21.468 12.881 12.881 19.321 28.981 19.321 47.229s-6.44 35.421-19.321 50.449c-13.954 13.954-31.128 21.468-50.449 21.468s-35.421-7.514-50.449-21.468c-13.954-13.954-21.468-31.128-21.468-50.449s7.514-35.421 21.468-47.229c15.027-13.954 31.128-21.468 50.449-21.468z" />
<glyph unicode="&#xe942;" glyph-name="pin-x" horiz-adv-x="535" d="M432.644 187.803l102.247-48.072-164.817-78.593 164.817-76.304-102.247-48.072-164.817 76.304-164.817-76.304-103.010 47.308 164.817 76.304-164.817 78.593 102.247 48.072 164.817-76.304 165.58 77.067zM267.827 177.121c-144.978 217.466-225.097 370.838-239.595 460.876-6.867 24.417-9.92 48.072-9.92 72.489 0 68.674 24.417 127.428 72.489 177.025 49.598 48.072 108.352 72.489 177.025 72.489 69.437 0 128.954-24.417 177.025-72.489 48.072-49.598 72.489-108.352 72.489-177.025 0-28.232-4.578-55.702-13.735-82.408-20.602-93.854-99.195-244.173-235.779-450.957zM267.827 847.070c-35.1 0-64.858-12.972-90.802-38.152-25.18-25.18-38.152-55.702-38.152-90.802 0-35.863 12.972-67.148 38.152-92.328s55.702-38.152 90.802-38.152c35.863 0 67.148 12.972 92.328 38.152 24.417 25.18 35.863 56.465 35.863 92.328 0 35.1-12.209 64.858-35.863 90.802-25.18 25.943-56.465 38.152-92.328 38.152z" />
<glyph unicode="&#xe943;" glyph-name="pin" horiz-adv-x="845" d="M720.31 833.335c83.171-83.171 124.376-184.656 124.376-303.69s-41.967-221.282-124.376-305.979l-255.618-255.618c-21.365-21.365-35.863-32.048-41.967-32.048-6.867 0-20.602 10.683-41.967 32.048l-257.908 255.618c-81.645 84.697-122.849 186.182-122.849 305.979 0 119.034 41.204 220.519 122.849 303.69 83.171 84.697 183.13 126.665 299.875 126.665s215.94-41.967 297.586-126.665zM422.724 356.435c47.308 0 86.224 16.787 119.034 50.361 33.574 33.574 50.361 74.778 50.361 122.849 0 47.308-16.787 86.987-50.361 120.56-32.048 35.1-71.726 52.65-119.034 52.65s-86.224-17.55-119.034-52.65c-33.574-33.574-50.361-74.015-50.361-120.56 0-48.072 16.787-89.276 50.361-122.849 32.048-33.574 71.726-50.361 119.034-50.361z" />
<glyph unicode="&#xe944;" glyph-name="play" horiz-adv-x="878" d="M877.714 448l-877.714-512v1024l877.714-512z" />
<glyph unicode="&#xe945;" glyph-name="plus" d="M945.548 527.484c21.677 0 39.226-7.226 54.71-22.71s22.71-34.065 22.71-54.71c0-22.71-7.226-42.323-22.71-56.774-15.484-15.484-34.065-22.71-54.71-22.71h-355.097v-355.097c0-21.677-7.226-39.226-22.71-54.71s-34.065-22.71-54.71-22.71c-22.71 0-42.323 7.226-56.774 22.71-15.484 15.484-22.71 34.065-22.71 54.71v354.065h-356.129c-21.677 0-39.226 7.226-54.71 22.71s-22.71 34.065-22.71 56.774c0 21.677 7.226 39.226 22.71 54.71s34.065 22.71 54.71 22.71h355.097v356.129c0 21.677 7.226 39.226 22.71 54.71s35.097 22.71 57.806 22.71c21.677 0 39.226-7.226 54.71-22.71s22.71-34.065 22.71-54.71v-355.097h355.097z" />
<glyph unicode="&#xe946;" glyph-name="powerpoint" horiz-adv-x="936" d="M221.751 368.577c6.517 5.468 10.63 13.615 10.63 22.724 0 0.653-0.021 1.302-0.063 1.944l0.005-0.088c0.074 0.797 0.117 1.723 0.117 2.659 0 8.394-3.413 15.991-8.926 21.479l-0.001 0.001c-6.773 4.937-15.261 7.899-24.44 7.899-1.228 0-2.443-0.053-3.644-0.157l0.156 0.011h-21.144v-64.931h15.242c1.139-0.091 2.465-0.143 3.804-0.143 10.54 0 20.33 3.214 28.443 8.714l-0.178-0.114zM241.309 793.753h362.889v-33.39h-362.889v33.39zM689.744 960h-497.067c-37.065-0.090-67.177-29.738-68.013-66.615l-0.001-0.078v-269.502l-124.663-18.766v-502.177l124.663-19.47v-80.701c0-38.5 39.734-66.693 75.679-66.693h667.278c0.184-0.002 0.402-0.003 0.62-0.003 36.976 0 66.997 29.776 67.393 66.658v716.565zM684.634 917.711l195.849-192.061h-195.849zM128.099 244.354v218.755h69.864q39.734 0 60.526-17.092c12.83-11.489 20.866-28.105 20.866-46.598 0-1.584-0.059-3.154-0.175-4.708l0.012 0.207c0.086-1.268 0.135-2.749 0.135-4.241 0-19.742-8.567-37.484-22.186-49.71l-0.062-0.055q-22.025-18.677-62.728-18.677h-19.911v-77.793zM902.332 2.693c-0.441-17.807-14.98-32.073-32.852-32.073-0.189 0-0.378 0.002-0.566 0.005h-667.338c-19.206 0-41.055 16.651-41.055 32.069h1.322v74.798l208.183-32.597h49.425v615.563h-47.575l-210.033-31.012v264.304c0.441 17.807 14.98 32.073 32.852 32.073 0.189 0 0.378-0.002 0.566-0.005h455.984v-234.349h251.088zM476.98 121.101h335.137v-33.39h-335.137v33.39zM478.301 227.967h333.815v-33.39h-333.815v33.39zM625.518 583.015c-0.026 0-0.057 0-0.088 0-76.197 0-137.966-61.77-137.966-137.966s61.77-137.966 137.966-137.966c76.197 0 137.966 61.77 137.966 137.966v0h-137.878c0 31.981 0 84.665 0 137.966zM643.139 462.845v0zM643.139 600.811c0-53.389 0-105.721 0-137.966h137.966c0 76.197-61.77 137.966-137.966 137.966v0z" />
<glyph unicode="&#xe947;" glyph-name="puzzle" horiz-adv-x="1008" d="M848.225 438.085c44.169 0 81.127-15.324 111.775-45.972 31.549-31.549 47.775-69.408 47.775-111.775 0-44.169-15.324-82.028-45.972-113.577-30.648-30.648-67.606-45.972-111.775-45.972-34.254 0-60.394 7.211-75.718 21.634-30.648 25.239-45.972 18.028-45.972-21.634v-119.887c0-17.127-7.211-32.451-21.634-45.972-14.423-11.718-31.549-18.028-49.577-18.028h-133.408c-17.127 0-27.944 4.507-31.549 14.423-5.408 10.817-2.704 22.535 8.113 36.056 10.817 14.423 16.225 37.859 16.225 70.31 0 44.169-15.324 82.028-45.972 113.577-30.648 30.648-67.606 45.972-111.775 45.972s-81.127-15.324-111.775-45.972c-31.549-31.549-47.775-70.31-47.775-113.577 0-31.549 6.31-54.986 18.028-70.31 10.817-13.521 13.521-25.239 8.113-36.056-3.606-9.014-15.324-14.423-34.254-14.423h-133.408c-38.761 0-57.69 21.634-57.69 64v597.634c0 44.169 18.93 65.803 57.69 65.803h159.549c17.127 0 27.944 3.606 31.549 11.718s-0.901 18.028-14.423 29.746c-25.239 22.535-37.859 54.085-37.859 93.746 0 44.169 16.225 82.028 47.775 113.577 32.451 31.549 69.408 46.873 113.577 46.873s81.127-15.324 111.775-45.972c30.648-30.648 45.972-67.606 45.972-111.775 0-39.662-11.718-72.113-36.056-95.549-13.521-11.718-18.028-21.634-14.423-29.746 2.704-8.113 13.521-11.718 31.549-11.718h157.746c18.93 0 35.155-6.31 49.577-19.831 14.423-14.423 21.634-29.746 21.634-45.972v-159.549c0-39.662 15.324-47.775 45.972-21.634 17.127 12.62 41.465 19.831 76.62 19.831z" />
<glyph unicode="&#xe948;" glyph-name="right-arrow" horiz-adv-x="590" d="M590.127 448l-471.799-512-118.329 128.19 354.228 383.81-354.228 383.81 118.329 128.19 471.799-512z" />
<glyph unicode="&#xe949;" glyph-name="rss" d="M841.279-64c0 227.64-85.27 423.304-255.048 588.514-167.494 164.449-362.397 246.674-586.23 246.674v188.812c273.32 0 510.858-100.497 714.897-301.49 206.323-203.277 309.103-444.622 309.103-722.51h-182.721zM505.529-64c0 118.769-49.487 229.924-148.461 333.466-42.635 45.68-99.735 82.986-170.54 112.678-68.52 28.17-130.189 41.874-186.528 41.874v188.812c171.301-3.807 327.375-74.611 467.462-210.891 141.609-137.802 214.697-293.115 218.504-465.939h-180.437zM218.504 155.265c25.124-25.124 38.067-55.578 38.067-90.599 0-35.783-12.943-66.236-38.067-90.599-25.124-25.124-55.578-38.067-90.599-38.067s-64.714 12.943-90.599 38.067c-25.124 24.363-38.067 54.055-38.067 90.599 0 35.022 12.943 64.714 38.067 90.599 25.124 24.363 55.578 35.783 90.599 35.783s65.475-12.181 90.599-35.783z" />
<glyph unicode="&#xe94a;" glyph-name="screen" horiz-adv-x="1487" d="M1451.332 960c23.051 0 35.463-11.526 35.463-35.463v-797.035c0-10.639-3.546-21.278-9.752-30.144-7.979-9.752-15.958-14.185-25.711-14.185h-565.638l15.958-118.802 51.422-9.752c2.66 0 4.433-1.773 4.433-4.433l2.66-4.433c0-1.773-0.887-3.546-2.66-4.433-1.773-3.546-3.546-4.433-4.433-4.433h-441.517c-1.773 0-3.546 0.887-4.433 2.66l-2.66 4.433c-1.773 1.773-1.773 3.546 0 7.093 1.773 1.773 3.546 3.546 4.433 4.433l54.081 9.752 15.958 118.802h-541.7c-10.639 0-19.505 4.433-25.711 14.185-7.979 8.866-11.526 18.618-11.526 29.257v797.035c0 23.051 12.412 35.463 37.236 35.463h1414.095zM1421.188 894.393h-1355.581v-711.037h1355.581v711.037zM734.088 927.197c-4.433 0-7.093-1.773-7.093-4.433 0-4.433 2.66-7.093 7.093-7.093 3.546 0 4.433 2.66 4.433 7.093 0 2.66-1.773 4.433-4.433 4.433z" />
<glyph unicode="&#xe94b;" glyph-name="search" d="M1003.966 44.181c13.165-12.020 20.034-26.902 20.034-44.074 0-18.889-6.869-34.343-20.034-46.363-12.020-12.020-26.902-18.316-44.074-18.316s-32.626 6.296-46.363 18.316l-307.944 309.661c-65.824-48.080-139.662-72.693-221.514-72.693-105.892 0-196.329 37.778-271.884 112.76-74.41 75.555-112.188 165.42-112.188 270.167 0 107.036 37.778 198.618 112.76 273.601s165.42 112.76 271.311 112.76c104.747 0 194.612-37.778 269.594-112.76s112.76-166.565 112.76-273.601c0-80.707-23.468-153.4-70.404-219.224l307.944-310.234zM384.072 313.775c70.976 0 131.077 24.613 179.157 74.41 50.942 49.798 76.7 109.326 76.7 179.157 0 70.976-25.757 132.221-76.7 183.164-48.080 49.798-108.181 74.41-179.157 74.41s-131.649-24.613-180.874-74.41c-49.798-50.942-74.41-112.188-74.41-183.164 0-69.831 24.613-129.359 74.41-179.157 49.798-49.225 109.898-74.41 180.874-74.41z" />
<glyph unicode="&#xe94c;" glyph-name="shared" horiz-adv-x="853" d="M715.551 210.732c-27.473 0-53.698-8.741-74.927-22.478l-369.639 228.527c2.498 9.99 3.746 19.98 3.746 31.22 0 12.488-1.249 24.976-4.995 36.215l354.654 237.268c23.727-22.478 56.195-34.966 91.161-34.966 76.176 0 137.366 61.19 137.366 137.366s-61.19 137.366-137.366 137.366-137.366-61.19-137.366-137.366c0-8.741 1.249-17.483 2.498-26.224l-359.649-241.015c-22.478 17.483-52.449 28.722-83.668 28.722-76.176 0-137.366-61.19-137.366-137.366s61.19-137.366 137.366-137.366c33.717 0 63.688 12.488 87.415 31.22l362.146-222.283c-4.995-13.737-7.493-29.971-7.493-46.205 0-76.176 61.19-137.366 137.366-137.366s137.366 61.19 137.366 137.366c-1.249 76.176-62.439 137.366-138.615 137.366z" />
<glyph unicode="&#xe94d;" glyph-name="social-facebook" horiz-adv-x="478" d="M128-64v512h-128v175.787h128v104.107c0 35.84 2.844 68.267 9.102 97.28 6.258 28.444 16.498 52.907 31.858 72.818s36.409 35.271 63.147 46.080c26.738 10.809 61.44 15.929 104.107 15.929h142.222v-175.787h-88.178c-17.067 0-30.72-1.707-39.822-5.12s-15.929-7.964-19.911-14.222-6.827-13.084-7.964-22.187c-1.138-8.533-2.276-18.773-2.276-30.72v-88.178h157.582l-17.636-175.787h-140.516v-512h-191.716z" />
<glyph unicode="&#xe94e;" glyph-name="social-foursquare" horiz-adv-x="1029" d="M990.5 534.465c24.446-24.446 36.216-52.513 36.216-86.012s-11.77-61.567-36.216-84.202l-392.035-393.846c-24.446-22.635-52.513-34.405-86.012-34.405s-61.567 11.77-84.202 34.405l-392.035 392.941c-24.446 22.635-36.216 50.702-36.216 84.202s11.77 62.472 36.216 86.012l391.13 392.035c23.54 22.635 51.607 34.405 85.107 34.405s62.472-11.77 86.012-34.405l176.552-176.552-267.091-267.091-124.944 126.755c-19.013 17.202-40.743 26.256-66.094 26.256s-47.986-9.054-66.094-26.256l-80.58-80.58c-19.013-19.013-28.067-40.743-28.067-66.094 0-27.162 9.054-48.891 28.067-66.094l270.713-273.429c11.77-11.77 27.162-19.919 44.364-24.446l3.622-3.622h18.108c27.162 0 49.797 9.054 67.905 28.067l411.954 413.765 3.622-1.811zM506.115 397.751l383.887 383.887c6.338 6.338 14.486 9.959 24.446 9.959 9.054 0 17.202-3.622 24.446-9.959l80.58-80.58c6.338-6.338 9.959-14.486 9.959-24.446 0-9.054-3.622-17.202-9.959-24.446l-488.912-485.291c-6.338-6.338-14.486-9.959-24.446-9.959h-3.622c-6.338 0-13.581 3.622-19.919 9.959l-271.618 270.713c-6.338 6.338-9.959 14.486-9.959 24.446 0 9.054 3.622 17.202 9.959 24.446l80.58 80.58c6.338 6.338 14.486 9.959 24.446 9.959 9.054 0 17.202-3.622 24.446-9.959l165.687-169.309z" />
<glyph unicode="&#xe94f;" glyph-name="social-google-plus" horiz-adv-x="1018" d="M570.019 912.313h-82.022c10.423-7.366 19.569-15.2 27.933-23.799l0.044-0.045c11.786-10.823 21.779-23.349 29.649-37.236l0.393-0.755c9.324-14.931 17.406-32.131 23.365-50.293l0.479-1.685c6.579-19.168 10.377-41.254 10.377-64.226 0-1.507-0.016-3.009-0.049-4.508l0.004 0.224q-1.987-72.007-31.791-115.959-15.896-20.029-31.791-37.991l-39.739-36.004c-8.167-8.248-15.436-17.412-21.631-27.317l-0.385-0.659c-7.507-10.089-12.018-22.794-12.018-36.553 0-0.506 0.006-1.010 0.018-1.513l-0.001 0.075c-0.031-0.677-0.048-1.47-0.048-2.268 0-12.846 4.548-24.629 12.123-33.827l-0.073 0.092q10.014-12.001 20.029-22.016l46.018-37.991c28.457-22.253 53.192-47.265 74.46-75.071l0.727-0.99q30.043-44.031 30.043-111.985 0-97.997-85.996-173.978-89.97-77.968-257.987-80.035-142.028 1.987-211.969 60.006-70.179 55.953-70.179 132.014c1.078 30.865 9.097 59.624 22.532 85.083l-0.517-1.074q23.844 43.952 82.022 80.035c39.225 22.55 84.777 39.889 133.111 49.514l2.877 0.478q72.007 10.014 120.012 12.001c-10.257 11.41-18.956 24.51-25.584 38.768l-0.405 0.971c-8.784 13.749-14 30.515-14 48.499 0 0.525 0.004 1.049 0.013 1.572l-0.001-0.079c-0.038 0.844-0.060 1.834-0.060 2.829 0 9.916 2.159 19.327 6.033 27.79l-0.171-0.417 7.948 24.002c-13.174-2.418-28.394-3.859-43.928-3.973l-0.103-0.001q-108.011 1.987-163.964 68.034c-35.743 36.722-57.785 86.936-57.785 142.298 0 0.464 0.002 0.927 0.005 1.39v-0.071q0 99.984 82.022 180.019c33.221 28.995 73.636 50.627 118.181 61.885l1.99 0.426c34.006 7.229 73.236 11.578 113.407 11.999l0.326 0.003h270.227zM505.96 226.017q-34.017 36.004-109.998 90.208h-30.361c-4.992 0.317-10.824 0.497-16.699 0.497-13.142 0-26.072-0.903-38.734-2.65l1.467 0.166c-31.837-4.697-60.169-11.684-87.399-21.041l3.391 1.013-29.963-10.014c-14.435-8.273-26.853-16.866-38.486-26.382l0.495 0.393c-12.427-11.343-22.993-24.44-31.374-38.956l-0.417-0.783c-8.847-17.013-14.036-37.149-14.036-58.496 0-1.23 0.017-2.455 0.051-3.677l-0.004 0.18q0-70.020 63.98-115.959 61.993-46.018 168.017-47.687 93.943 1.987 144.015 41.965c30.543 24.424 49.938 61.685 49.938 103.475 0 34.114-12.924 65.21-34.144 88.658l0.101-0.113zM462.008 621.978c2.233 13.611 3.667 29.515 3.969 45.695l0.005 0.323c-0.734 58.784-16.196 113.8-42.854 161.733l0.89-1.743c-11.346 25.842-28.381 47.365-49.614 63.701l-0.378 0.28c-20.202 13.999-44.982 22.758-71.741 23.835l-0.266 0.009c-36.973-0.554-69.884-17.482-91.878-43.836l-0.158-0.195c-17.613-26.116-28.115-58.294-28.115-92.924 0-2.399 0.050-4.786 0.15-7.161l-0.011 0.339c1.172-56.066 16.599-108.287 42.785-153.499l-0.821 1.536c13.19-25.157 31.496-45.979 53.668-61.711l0.536-0.361c19.513-16.182 44.812-26.001 72.404-26.001 0.559 0 1.117 0.004 1.674 0.012l-0.084-0.001c34.617 0.162 65.808 14.697 87.935 37.94l0.048 0.050c10.69 14.656 18.369 32.196 21.746 51.224l0.111 0.755zM1018.357 813.998v-70.020h-140.359v-139.962h-67.954v139.962h-142.425v70.020h142.028v139.962h67.954v-139.962z" />
<glyph unicode="&#xe950;" glyph-name="social-instagram-2" d="M853.902 960c23.893 0 46.080-4.551 65.991-13.084s38.116-21.049 54.044-36.978 28.444-34.133 36.978-54.044c8.533-19.911 13.084-42.098 13.084-65.991v-683.804c0-23.893-4.551-46.080-13.084-65.991s-21.049-38.116-36.978-54.044-34.133-28.444-54.044-36.978c-19.911-8.533-42.098-13.084-65.991-13.084h-683.804c-23.893 0-46.080 4.551-65.991 13.084s-38.116 21.049-54.044 36.978-28.444 34.133-36.978 54.044c-8.533 19.911-13.084 42.098-13.084 65.991v683.804c0 23.893 4.551 46.080 13.084 65.991s21.049 38.116 36.978 54.044 34.133 28.444 54.044 36.978c19.911 8.533 42.098 13.084 65.991 13.084h683.804zM892.018 511.716h-100.124c1.138-5.12 2.276-10.809 2.844-15.929s1.138-10.809 2.276-15.929c0.569-5.12 1.138-10.809 2.276-15.929 0.569-5.12 1.138-10.809 1.138-15.929 0-39.822-7.396-77.938-22.187-113.209s-35.271-66.56-62.009-92.729c-26.738-26.738-57.458-47.218-92.729-62.009s-72.818-22.187-113.209-22.187-77.938 7.396-113.209 22.187c-35.271 14.791-66.56 35.271-92.729 62.009-26.738 26.738-47.218 57.458-62.009 92.729s-22.187 73.387-22.187 113.209c0 5.12 0 10.809 0 15.929s0.569 10.809 1.138 15.929c0.569 5.12 1.138 10.809 2.276 15.929 0.569 5.12 1.707 10.809 2.844 15.929h-100.693v-384c0-9.102 1.707-17.636 5.12-25.031s7.964-14.222 14.222-19.911 12.516-10.809 19.911-14.222c7.396-3.413 15.929-5.12 25.031-5.12h640c9.102 0 17.636 1.707 25.031 5.12s14.222 7.964 19.911 14.222 10.809 12.516 14.222 19.911c3.413 7.396 5.12 15.929 5.12 25.031v384h-2.276zM325.973 511.716c-1.138-5.12-2.844-10.809-3.982-15.929s-2.844-10.809-3.982-15.929c-1.138-5.12-2.276-10.809-2.276-15.929s0-10.809 0-15.929c0-26.738 5.12-51.769 14.791-76.231s23.893-44.942 40.96-62.009c17.067-17.067 38.116-30.72 62.009-40.96s49.493-14.791 76.231-14.791c26.738 0 51.769 5.12 76.231 14.791s44.373 23.893 62.009 40.96c17.067 17.067 31.289 38.116 42.098 62.009s15.929 49.493 15.929 76.231c0 5.12 0 10.809 0 15.929s-0.569 10.809-2.276 15.929c-1.138 5.12-2.844 10.809-3.982 15.929s-2.844 10.809-3.982 15.929h-369.778zM892.018 735.858v64.284c0 3.982-1.138 7.964-2.844 11.947s-4.551 7.396-6.827 10.24c-2.844 2.844-6.258 5.12-10.24 6.827s-7.964 2.844-11.947 2.844h-63.716c-3.982 0-7.964-1.138-11.947-2.844s-7.396-4.551-10.24-6.827c-2.844-2.844-5.12-6.258-6.827-10.24s-2.844-7.964-2.844-11.947v-63.716c0-3.982 1.138-7.964 2.844-11.947s4.551-7.396 6.827-10.24c2.844-2.844 6.258-5.12 10.24-6.827s7.964-2.844 11.947-2.844h63.716c3.982 0 7.964 1.138 11.947 2.844s7.396 4.551 10.24 6.827c2.844 2.844 5.12 6.258 6.827 10.24s2.844 7.396 2.844 11.378z" />
<glyph unicode="&#xe951;" glyph-name="social-instagram" horiz-adv-x="1021" d="M0 827.615c0 37.068 13.239 67.516 39.716 90.684 24.491 27.801 54.94 41.039 90.684 39.716l761.215 2.648c35.744-1.324 66.193-14.562 90.684-39.716 26.477-26.477 39.716-56.926 39.716-90.684v-763.863c0-34.42-13.239-64.207-39.716-90.684-25.153-25.153-54.94-37.73-90.684-39.716l-761.215 2.648c-35.744-1.324-66.193 11.915-90.684 39.716-26.477 23.167-39.716 53.616-39.716 90.684v758.568zM113.851 94.2c0-9.267 3.972-18.534 11.915-27.801 7.943-5.957 17.21-9.929 27.801-11.915l712.233 2.648c10.591-1.324 19.858 2.648 27.801 11.915 7.943 5.957 11.915 15.224 11.915 27.801v428.266l-88.698 2.648c7.943-29.787 11.915-58.25 11.915-86.050 0-57.588-13.9-109.218-41.701-156.215-27.801-48.321-66.855-85.388-116.499-111.866-48.321-29.787-100.613-43.687-158.2-41.701-88.698-1.324-163.496 28.463-225.717 90.684-62.221 58.911-93.332 131.723-93.332 218.436 0 27.801 4.633 56.926 13.9 86.050l-93.332-2.648v-430.252zM367.369 308.665c39.054-37.068 86.712-56.926 144.3-58.25 55.602 1.324 103.922 21.182 144.3 58.25 40.378 40.378 60.235 86.712 60.235 139.666 0 57.588-19.858 104.584-60.235 141.652-40.378 40.378-88.698 59.573-144.3 58.25-57.588 1.324-105.246-17.872-144.3-58.25-40.378-37.068-60.235-84.727-60.235-141.652 0-52.954 19.858-99.289 60.235-139.666zM712.233 657.5c7.943-10.591 18.534-15.224 32.434-13.9l113.851-2.648c13.9 1.324 24.491 5.957 32.434 13.9 9.267 10.591 13.9 21.844 13.9 32.434v111.866c0 10.591-4.633 21.844-13.9 32.434-7.943 7.943-18.534 12.577-32.434 13.9l-113.851-2.648c-13.9 1.324-25.153-3.31-32.434-13.9-9.267-7.943-13.9-18.534-13.9-32.434v-107.232c0-13.239 4.633-23.829 13.9-31.772z" />
<glyph unicode="&#xe952;" glyph-name="social-linkedin" horiz-adv-x="1055" d="M124.49 721.316c-37.441 0-67.393 12.168-91.729 35.569-21.528 21.528-32.761 50.545-32.761 85.177s12.168 62.713 35.569 85.177c23.4 21.528 54.289 32.761 93.601 32.761 37.441 0 67.393-11.232 91.729-32.761 22.464-22.464 33.697-50.545 35.569-85.177 0-34.633-12.168-62.713-35.569-85.177-23.4-23.4-54.289-35.569-93.601-35.569h-2.808zM238.684-64h-226.516v691.715h226.516v-691.715zM365.046-64c0.936 418.399 0.936 648.658 0 691.715h226.516v-102.026h-1.872c9.36 14.976 18.72 28.080 27.144 39.313 12.168 14.040 26.208 26.208 41.185 37.441 37.441 28.080 83.305 41.185 136.658 41.185 77.689 0 139.466-25.272 187.203-76.753 48.673-54.289 73.009-131.978 73.009-234.94v-396.87h-226.516v370.662c0 103.898-38.377 155.378-114.194 155.378-29.016 0-54.289-9.36-74.881-27.144-17.784-14.040-31.824-32.761-41.185-56.161-3.744-12.168-6.552-30.888-6.552-56.161v-386.574h-226.516z" />
<glyph unicode="&#xe953;" glyph-name="social-tumblr" horiz-adv-x="640" d="M384 277.902c0-14.791 0-27.876 0-39.822s0-22.187 0-30.72c0-8.533 0.569-16.498 2.276-22.756 1.138-6.827 2.844-11.947 3.982-15.929s3.413-8.533 6.258-13.084c2.844-4.551 5.689-9.102 9.102-13.084s6.827-7.964 10.809-10.809c3.982-3.413 7.964-5.689 11.947-6.827 6.827-3.982 13.084-7.396 18.773-10.24 6.258-2.844 11.947-4.551 18.204-6.258 6.258-1.138 12.516-2.844 19.911-3.982s14.222-2.276 21.049-2.276c13.084 0 25.031 0.569 35.84 2.276 10.809 1.138 21.049 3.413 30.72 6.258 10.24 2.844 20.48 6.827 30.72 11.947 10.809 5.12 22.756 12.516 35.84 22.187v-154.169c-10.809-5.12-21.618-10.24-31.858-14.222-10.809-3.982-20.48-7.396-30.151-10.809-9.102-3.413-18.773-6.258-27.876-9.102s-18.773-5.12-27.876-7.964c-7.964-1.138-16.498-2.844-26.169-5.12-9.102-2.276-18.773-3.413-29.013-3.982s-19.911-1.138-29.013-2.276c-9.102-0.569-19.342-1.138-30.151-1.138-11.947 0-22.756 0.569-31.858 1.138s-18.204 1.707-26.738 2.844c-8.533 1.138-17.067 3.413-26.169 6.258-8.533 2.844-17.067 5.12-25.031 7.964-9.102 2.844-18.204 5.689-26.738 9.102s-16.498 7.396-23.893 11.947c-7.396 4.551-14.791 9.102-22.187 14.222-7.396 4.551-13.653 9.671-18.773 14.791-6.827 5.12-12.516 10.809-18.204 17.067-5.12 6.258-10.24 11.378-14.791 17.067-4.551 5.12-8.533 10.809-11.947 17.067s-6.258 12.516-9.102 18.773c-2.844 6.827-4.551 13.653-6.258 21.049-1.138 7.396-2.844 15.36-3.982 23.893s-2.276 18.204-2.844 29.013c-0.569 10.809-1.138 22.187-1.138 34.133v357.831h-137.671v145.636c10.809 2.844 21.049 6.258 30.72 10.24s19.911 8.533 30.151 13.084c10.24 4.551 19.911 9.671 29.013 14.791s17.067 11.378 23.893 18.204c6.827 5.12 13.084 11.378 19.911 18.204s13.084 13.653 18.773 21.049c6.258 7.396 11.378 14.791 15.929 22.756s9.671 16.498 14.791 26.169c3.982 7.964 7.396 17.067 10.809 26.738 3.413 10.24 6.827 20.48 10.24 30.72 3.413 10.809 6.258 22.187 7.964 34.133s3.413 24.462 5.12 38.116h166.116v-256h256v-192.284h-256v-233.813z" />
</font>
</defs>
</svg>
